Tags
Language
Tags

Heaven & Hell - The Devil You Know (2009) {Japan 1st Press}

Posted By: popsakov
Heaven & Hell - The Devil You Know (2009) {Japan 1st Press}

Heaven & Hell - The Devil You Know (2009) {Japan 1st Press}
EAC Rip | WavPack (Img) + Cue + Log ~ 419 Mb | MP3 CBR320 ~ 164 Mb
Full Scans | 00:54:04 | RAR 5% Recovery
Heavy Metal, Doom Metal | Victor #VICP-70106

It's almost a blessing that, for legal reasons, this four-piece can't call itself Black Sabbath. It only serves to hammer home the point that with Ronnie James Dio up front and Vinny Appice in back, Tony Iommi and Geezer Butler express a very different side of their musical personalities than they ever did with Ozzy Osbourne on vocals and Bill Ward on drums. Where the original lineup was an ultra-heavy blues band, with a rhythm section that never failed to swing (OK, they failed a little bit on "Sweet Leaf"), when Dio came on board in 1980 the group was reinvented as a heavy metal juggernaut. While Iommi's riffs remained crushingly heavy, the rhythms got faster on songs like "Neon Knights," "Turn Up the Night," and "Mob Rules," and the lyrics abandoned the earthly concerns of "Paranoid" and "Hand of Doom" for Dio's abstract symbolism and myth-making. These differences became more stark with each album (Heaven and Hell, Mob Rules, and 1992's reunion disc Dehumanizer), and now, The Devil You Know confirms once and for all this lineup's unique take on the genre it helped invent.

This is a heavier album than any of its three predecessors; whether it's due to the bandmembers' advancing age or the influence of anxieties felt throughout the world outside the studio, it's the closest in spirit to the first two Black Sabbath albums, themselves forged in the psychic darkness that was the tail end of the 1960s. It's not until "Eating the Cannibals," track seven of ten, that the band revs into high gear the way it did on "Neon Knights" and "Turn Up the Night" 20-plus years ago. The songs that begin the album, and make up the bulk of its running time, are like slow-motion avalanches, Iommi's riffs and Appice's drumming punishing the listener like medieval monks scourging unbelievers. Dio's lyrics, too, seem to embody an almost Old Testament world-view, positing a universe of darkness, fire, and despair. His voice is as powerful as ever, but he's no longer offering self-esteem lessons the way he once did; he seems consumed by fear and doubt. This gives The Devil You Know a feeling of genuine doom that leaves little opportunity for the catharsis provided by classic heavy metal. While the Osbourne-fronted and Dio-fronted versions of Black Sabbath are, again, very different bands, this is an album that matches its moment every bit as perfectly as Paranoid did back in 1970.

~ Phil Freeman, All Music

***************

Heaven & Hell - The Devil You Know (2009) {Japan 1st Press}

Track List:

01. Atom And Evil [0:05:13.51]
02. Fear [0:04:46.04]
03. Bible Black [0:06:26.60]
04. Double The Pain [0:05:23.45]
05. Rock And Roll Angel [0:06:02.37]
06. The Turn Of The Screw [0:05:00.10]
07. Eating The Cannibals [0:03:34.68]
08. Follow The Tears [0:06:09.45]
09. Neverwhere [0:04:32.40]
10. Breaking Into Heaven [0:06:54.07]

Personnel:
Ronnie James Dio - vocals
Tony Iommi - guitar
Geezer Butler - bass guitar
Vinny Appice - drums, percussion

Additional Personnel:
Mike Exeter - keyboards

Exact Audio Copy V1.2 from 12. August 2016

EAC extraction logfile from 23. September 2017, 12:42

Heaven & Hell / The Devil You Know [VICP-70106]

Used drive : HL-DT-STBD-RE BH10LS38 Adapter: 1 ID: 1

Read mode : Secure
Utilize accurate stream : Yes
Defeat audio cache : Yes
Make use of C2 pointers : No

Read offset correction : 667
Overread into Lead-In and Lead-Out : No
Fill up missing offset samples with silence : Yes
Delete leading and trailing silent blocks : No
Null samples used in CRC calculations : Yes
Used interface : Installed external ASPI interface

Used output format : User Defined Encoder
Selected bitrate : 128 kBit/s
Quality : High
Add ID3 tag : No
Command line compressor : C:\Program Files (x86)\Exact Audio Copy\wavpack-4.60.1\wavpack.exe
Additional command line options : -hm -w "Year=%year%" -w "Genre=%genre%" %source% %dest%


TOC of the extracted CD

Track | Start | Length | Start sector | End sector
––––––––––––––––––––––––––––-
1 | 0:00.00 | 5:13.51 | 0 | 23525
2 | 5:13.51 | 4:46.04 | 23526 | 44979
3 | 9:59.55 | 6:26.60 | 44980 | 73989
4 | 16:26.40 | 5:23.45 | 73990 | 98259
5 | 21:50.10 | 6:02.37 | 98260 | 125446
6 | 27:52.47 | 5:00.10 | 125447 | 147956
7 | 32:52.57 | 3:34.68 | 147957 | 164074
8 | 36:27.50 | 6:09.45 | 164075 | 191794
9 | 42:37.20 | 4:32.40 | 191795 | 212234
10 | 47:09.60 | 6:54.07 | 212235 | 243291


Range status and errors

Selected range

Filename G:\Rips by Alder\Heaven & Hell - The Devil You Know [VICP-70106].wav

Peak level 98.9 %
Extraction speed 7.6 X
Range quality 100.0 %
Test CRC CE0F985E
Copy CRC CE0F985E
Copy OK

No errors occurred


AccurateRip summary

Track 1 accurately ripped (confidence 13) [36D19A68] (AR v2)
Track 2 accurately ripped (confidence 13) [147281AE] (AR v2)
Track 3 accurately ripped (confidence 13) [1D45C6CE] (AR v2)
Track 4 accurately ripped (confidence 13) [54570198] (AR v2)
Track 5 accurately ripped (confidence 13) [44F57589] (AR v2)
Track 6 accurately ripped (confidence 13) [8042632B] (AR v2)
Track 7 accurately ripped (confidence 13) [B0CBFAF8] (AR v2)
Track 8 accurately ripped (confidence 13) [314E0325] (AR v2)
Track 9 accurately ripped (confidence 13) [6B9B3F90] (AR v2)
Track 10 accurately ripped (confidence 13) [AA9DE102] (AR v2)

All tracks accurately ripped

End of status report

–– CUETools DB Plugin V2.1.6

[CTDB TOCID: GG_zYq.T0BJIxDawjOYCb_aPkwI-] found
Submit result: GG_zYq.T0BJIxDawjOYCb_aPkwI- has been confirmed
Track | CTDB Status
1 | (29/29) Accurately ripped
2 | (29/29) Accurately ripped
3 | (29/29) Accurately ripped
4 | (29/29) Accurately ripped
5 | (29/29) Accurately ripped
6 | (29/29) Accurately ripped
7 | (29/29) Accurately ripped
8 | (29/29) Accurately ripped
9 | (29/29) Accurately ripped
10 | (29/29) Accurately ripped


==== Log checksum D1D8532D5B42403405FC90AE71E39FED67924499F1C85483668FE032699DC448 ====

[CUETools log; Date: 27.10.2019 23:20:46; Version: 2.1.6]
[CTDB TOCID: GG_zYq.T0BJIxDawjOYCb_aPkwI-] found.
Track | CTDB Status
1 | (46/47) Accurately ripped
2 | (46/47) Accurately ripped
3 | (46/47) Accurately ripped
4 | (46/47) Accurately ripped
5 | (46/47) Accurately ripped
6 | (46/47) Accurately ripped
7 | (46/47) Accurately ripped
8 | (46/47) Accurately ripped
9 | (46/47) Accurately ripped
10 | (46/47) Accurately ripped
[AccurateRip ID: 001439f5-00a1aa87-900cab0a] found.
Track [ CRC | V2 ] Status
01 [dc84ca29|36d19a68] (06+13/19) Accurately ripped
02 [cfb806e3|147281ae] (06+13/19) Accurately ripped
03 [ffc8e00d|1d45c6ce] (06+13/19) Accurately ripped
04 [61975773|54570198] (06+13/19) Accurately ripped
05 [9e952875|44f57589] (06+13/19) Accurately ripped
06 [00fac8e7|8042632b] (06+13/19) Accurately ripped
07 [9c8f3852|b0cbfaf8] (06+13/19) Accurately ripped
08 [6187f2da|314e0325] (06+13/19) Accurately ripped
09 [fa2725fb|6b9b3f90] (06+13/19) Accurately ripped
10 [840fac3d|aa9de102] (06+13/19) Accurately ripped

Track Peak [ CRC32 ] [W/O NULL] [ LOG ]
– 98,9 [CE0F985E] [03204F22] CRC32
01 98,8 [A210C267] [097DCC59]
02 98,8 [756A5971] [66A1C018]
03 98,8 [C534E34D] [4989733D]
04 98,8 [3DB4332E] [61E89602]
05 98,8 [EB3E667C] [CF12EB10]
06 98,9 [3FD1BFC0] [FB8042F7]
07 98,8 [899AB770] [88B55DDA]
08 98,8 [D154103C] [83387CBF]
09 98,8 [16B5EADA] [38C748F8]
10 98,8 [EAD2E30A] [A8233C01]

Heaven & Hell - The Devil You Know (2009) {Japan 1st Press}


See also:

Heaven & Hell - Live Fr...l (2007) {Japan 1st Press}

All thanks go to Alder

>>> My Blog <<<

DOWNLOAD: