Subcategories

Heavens Edge - Some Other Place, Some Other Time (1998) [Reissue 1999]

Posted By: Andi_Deris
Heavens Edge - Some Other Place, Some Other Time (1998) [Reissue 1999]

Heavens Edge - Some Other Place, Some Other Time (1998) [Reissue 1999]
EAC Rip | FLAC: Image+Cue+Log | 558 Mb | MP3 CBR 320 kbps | 173 Mb | Scans | Time: 01:12:56
Perris Records | HE300022
Hard Rock

Heavens Edge signed a new record deal with MTM Records in 1998 and were asked to record a new album. The album was originally scheduled to be released in 1992 but wasn't finished until 1998 when a couple of new songs were written and recorded. Their second album, Some Other Place, Some Other Time included both the 2nd album sessions with Neil Kernon and the new 1998 songs, and was released by MTM Music in Europe, Pony Canyon in Japan, and Perris Records in the United States.

Heavens Edge - Some Other Place, Some Other Time (1998) [Reissue 1999]




Heavens Edge - Some Other Place, Some Other Time (1998) [Reissue 1999]


Track Listing

01. Rock Steady (5:11)
02. Some Other Place, Some Other Time (4:19)
03. Jacky (5:06)
04. Jump On It (3:15)
05. Just Another Fire (5:14)
06. Back Seat Driver (3:29)
07. Cuts Both Ways (4:01)
08. Call My Name (4:19)
09. Just Can't Cry Anymore (4:36)
10. Roller Coaster (3:50)
11. Take Me By The Hand * (5:34)
12. The Rhythm * (3:59)
13. Please Baby Please * (3:24)
14. Every Inch A Woman * (4:15)
15. Say What You Will * (7:13)
16. Nice And Easy * (5:11)

* Bonus tracks (Recorded and mixed by Joe Delucca at Why Me Studios / Produced by Joe Alexander)

Produced by Heavens Edge

The Band

• Mark Evans - vocals and guitar
• Reggie Wu - guitar, keyboards and background vocals
• Steven Parry - guitar and background vocals
• George "G.G." Guidotti - bass and background vocals
• David Rath - drums and percussion

*****
• Jimmy Marcian - guitar

Heavens Edge - Some Other Place, Some Other Time (1998) [Reissue 1999]


Exact Audio Copy V0.99 prebeta 5 from 4. May 2009

EAC extraction logfile from 9. January 2011, 7:28

Heaven's Edge / Some Other Place Some Other Time

Used drive : TSSTcorpCDDVDW SH-S223C Adapter: 1 ID: 1

Read mode : Secure
Utilize accurate stream : Yes
Defeat audio cache : Yes
Make use of C2 pointers : No

Read offset correction : 697
Overread into Lead-In and Lead-Out : No
Fill up missing offset samples with silence : Yes
Delete leading and trailing silent blocks : No
Null samples used in CRC calculations : Yes
Used interface : Installed external ASPI interface

Used output format : Internal WAV Routines
Sample format : 44.100 Hz; 16 Bit; Stereo


TOC of the extracted CD

Track | Start | Length | Start sector | End sector
––––––––––––––––––––––––––––-
1 | 0:00.00 | 5:11.40 | 0 | 23364
2 | 5:11.40 | 4:19.60 | 23365 | 42849
3 | 9:31.25 | 5:06.72 | 42850 | 65871
4 | 14:38.22 | 3:15.23 | 65872 | 80519
5 | 17:53.45 | 5:14.21 | 80520 | 104090
6 | 23:07.66 | 3:29.25 | 104091 | 119790
7 | 26:37.16 | 4:01.12 | 119791 | 137877
8 | 30:38.28 | 4:19.70 | 137878 | 157372
9 | 34:58.23 | 4:36.24 | 157373 | 178096
10 | 39:34.47 | 3:50.49 | 178097 | 195395
11 | 43:25.21 | 5:34.06 | 195396 | 220451
12 | 48:59.27 | 3:59.66 | 220452 | 238442
13 | 52:59.18 | 3:24.42 | 238443 | 253784
14 | 56:23.60 | 4:15.57 | 253785 | 272966
15 | 60:39.42 | 7:13.61 | 272967 | 305502
16 | 67:53.28 | 5:11.66 | 305503 | 328893


Range status and errors

Selected range

Filename E:\Heaven's Edge - Some Other Place Some Other Time (1998)\Heaven's Edge - Some Other Place Some Other Time.wav

Peak level 99.9 %
Range quality 100.0 %
Copy CRC 352502F3
Copy OK

No errors occurred

End of status report


Many thanks to the original uploader: GriffonNest

SEE also:
Heavens Edge 1990 Heavens Edge



Password: pass