Tags
Language
Tags

Heavy Cruiser - Lucky Dog (1973) [Reissue 2012]

Posted By: gribovar
Heavy Cruiser - Lucky Dog (1973) [Reissue 2012]

Heavy Cruiser - Lucky Dog (1973) [Reissue 2012]
EAC Rip | FLAC (image+.cue+log) - 240 MB | MP3 CBR 320 kbps (LAME 3.93) - 87 MB | Covers - 32 MB
Genre: Hard Rock, Psychedelic Rock | RAR 3% Rec. | Label: O-Music (OM 71040)

In 1972, pre-heavy metal legend Neil Merryweather took the musicans from Mama Lion with the exception of Lynn Carey, entered the studio and laid down two albums, "Heavy Cruiser" and "Lucky Dog" under the name of Heavy Cruiser.
Artie Ripp (record producer) stopped the band from putting their names on the record cover because he didn’t want it to interfere with his main act, Mama Lion.
The same thing happened when Neil did more of his songs with the band and produced a second “Heavy Cruiser” album called “Lucky Dog” - band members’ names were left off the cover.
Tracklist:
01. Everytime I Hear Your Music
02. Mirrors In Your Eyes
03. Where You Gonna Run To
04. Gotta Get Away
05. Open Your Eyes
06. You Really Got Me
07. Freefall Glider
08. Concrete Jungle
09. Supergirl
10. I'll Receive You

Total time: 37:07

Exact Audio Copy V1.0 beta 1 from 15. November 2010

EAC extraction logfile from 30. May 2014, 10:17

Heavy Cruiser / Lucky Dog

Used drive : ASUS DRW-24B3LT Adapter: 0 ID: 1

Read mode : Secure
Utilize accurate stream : Yes
Defeat audio cache : Yes
Make use of C2 pointers : No

Read offset correction : 6
Overread into Lead-In and Lead-Out : No
Fill up missing offset samples with silence : Yes
Delete leading and trailing silent blocks : No
Null samples used in CRC calculations : Yes
Used interface : Native Win32 interface for Win NT & 2000

Used output format : User Defined Encoder
Selected bitrate : 768 kBit/s
Quality : High
Add ID3 tag : No
Command line compressor : C:\Program Files (x86)\Exact Audio Copy\FLAC\FLAC.EXE
Additional command line options : -6 -V -T "ARTIST=%a" -T "TITLE=%t" -T "ALBUM=%g" -T "DATE=%y" -T "TRACKNUMBER=%n" -T "GENRE=%m" -T "COMMENT=%e" %j–picture="%i"%j %s -o %d


TOC of the extracted CD

Track | Start | Length | Start sector | End sector
––––––––––––––––––––––––––––-
1 | 0:00.00 | 2:44.09 | 0 | 12308
2 | 2:44.09 | 3:58.40 | 12309 | 30198
3 | 6:42.49 | 3:09.27 | 30199 | 44400
4 | 9:52.01 | 4:24.45 | 44401 | 64245
5 | 14:16.46 | 3:40.44 | 64246 | 80789
6 | 17:57.15 | 2:52.41 | 80790 | 93730
7 | 20:49.56 | 5:28.23 | 93731 | 118353
8 | 26:18.04 | 3:44.26 | 118354 | 135179
9 | 30:02.30 | 3:50.71 | 135180 | 152500
10 | 33:53.26 | 3:14.00 | 152501 | 167050


Range status and errors

Selected range

Filename C:\_pr0gger_\Heavy Cruiser - Lucky Dog (1973 - 2012, O-Music, OM 71040)[FLAC]\Heavy Cruiser - Lucky Dog.wav

Peak level 96.6 %
Extraction speed 0.4 X
Range quality 100.0 %
Test CRC 3007EC3C
Copy CRC 3007EC3C
Copy OK

No errors occurred


AccurateRip summary

Track 1 accurately ripped (confidence 1) [A671CBEA]
Track 2 accurately ripped (confidence 1) [9024AF9A]
Track 3 accurately ripped (confidence 1) [9B26A1A3]
Track 4 accurately ripped (confidence 1) [1FEBB90E]
Track 5 accurately ripped (confidence 1) [404780B7]
Track 6 accurately ripped (confidence 1) [867EFCB8]
Track 7 accurately ripped (confidence 1) [5E42D1CD]
Track 8 accurately ripped (confidence 1) [AC2AAB7B]
Track 9 accurately ripped (confidence 1) [85E233A6]
Track 10 accurately ripped (confidence 1) [FFEB70F7]

All tracks accurately ripped

End of status report

[CUETools log; Date: 10.07.2020 22:55:49; Version: 2.1.4]
[CTDB TOCID: qwpLh1K7p774AXNudRO3gtig6ro-] disk not present in database.
[AccurateRip ID: 000db6ca-006f1922-7d08b30a] found.
Track [ CRC | V2 ] Status
01 [a671cbea|daa3420b] (0+3/3) Accurately ripped
02 [9024af9a|618ada17] (0+3/3) Accurately ripped
03 [9b26a1a3|02ef8c0a] (0+3/3) Accurately ripped
04 [1febb90e|dc5ff95e] (0+3/3) Accurately ripped
05 [404780b7|9e2a5654] (0+3/3) Accurately ripped
06 [867efcb8|dc24d14e] (0+3/3) Accurately ripped
07 [5e42d1cd|326deea2] (0+3/3) Accurately ripped
08 [ac2aab7b|7129c066] (0+3/3) Accurately ripped
09 [85e233a6|874d6ac9] (0+3/3) Accurately ripped
10 [ffeb70f7|84fdb172] (0+3/3) Accurately ripped

Track Peak [ CRC32 ] [W/O NULL] [ LOG ]
– 96,6 [3007EC3C] [0BD50272] CRC32
01 96,5 [F994B645] [2EF00075]
02 96,5 [C02F3090] [DA247ED1]
03 96,6 [26037AE7] [067859A4]
04 96,6 [62CDF868] [CDC90990]
05 96,5 [18B60C1F] [31FF3582]
06 96,6 [2ACBF017] [C3F33AD1]
07 96,5 [088ADBE6] [11A37236]
08 96,6 [0F384580] [650E7684]
09 96,6 [9969F9B1] [54817C19]
10 96,6 [73DBF67A] [F883F000]

Thanks to pr0gger