Subcategories

Helen Shapiro - Sensational! The Uncollected Helen Shapiro (1995)

Posted By: popsakov
Helen Shapiro - Sensational! The Uncollected Helen Shapiro (1995)

Helen Shapiro - Sensational! The Uncollected Helen Shapiro (1995)
EAC Rip | FLAC (Img) + Cue + Log ~ 407 Mb | MP3 CBR320 ~ 156 Mb
Scans (JPG, 300 dpi) ~ 25 Mb | RAR 5% Recovery
Pop, Vocal | RPM Records #RPM 151

Helen Shapiro is remembered today by younger pop culture buffs as the slightly awkward actress/singer in Richard Lester's 1962 debut feature film, It's Trad, Dad. From 1961 until 1963, however, Shapiro was England's teenage pop music queen, at one point selling 40,000 copies daily of her biggest single, "Walking Back to Happiness," during a 19-week chart run. A deceptively young 14 when she was discovered, Shapiro had a rich, expressive voice properly sounding like the property of someone twice as old, and she matured into a seasoned professional very quickly.

As the title implies, this concentrates on Shapiro's less celebrated recordings, including 13 songs from her 1963 Helen's Sixteen LP, and a bunch of non-hit singles from 1965 and 1966. For the rock-oriented listener's taste at any rate, the later tunes are by far the most satisfying; Shapiro's voice remains in great shape, and tracks like "Forget About the Bad Things," "Empy House," and the self-penned "Wait a Little Longer" are far more sophisticated and soulful than her early teenage efforts. The earlier sides on the CD are dated standards and early '60s MOR British pop, not quite redeemed by Shapiro's perennially confident vocals.
~ Bruce Eder / Richie Unterberger, All Music

***************

Helen Shapiro - Sensational! The Uncollected Helen Shapiro (1995)

Track List:

01. A Teenager Sings The Blues (stereo) [03:17]
02. Blues In The Night (stereo) [04:06]
03. Are You Lonesome Tonight (stereo) [02:48]
04. Tearaway Johnny (stereo) [02:15]
05. Without Your Love (stereo) [02:49]
06. Aren't You The Lucky One (stereo) [02:22]
07. Every One But The Right One (stereo) [02:34]
08. It's Alright With Me (stereo) [02:08]
09. Lookin' For My Heart (stereo) [02:05]
10. Basin Street Blues (stereo) [03:36]
11. You Must Be Readin' My Mind (stereo) [02:09]
12. Til I Hear The Truth From You (stereo) [02:41]
13. Sensational (stereo) [02:28]
14. Easy Come, Easy Go (stereo) [02:48]
15. Remember Me (stereo) [02:06]
16. The End Of The World (stereo) [02:47]
17. It Might As Well Rain Until September (stereo) [02:23]
18. Here In Your Arms (mono) [02:43]
19. Only Once (mono) [02:49]
20. Just A Line (mono) [02:41]
21. Forget About The Bad Things (mono) [02:28]
22. Wait A Little Longer (mono) [03:13]
23. In My Calendar (mono) [03:21]
24. An Empty House (mono) [02:31]

Exact Audio Copy V1.1 from 23. June 2015

EAC extraction logfile from 17. July 2016, 7:03

Helen Shapiro / Sensational

Used drive : PLEXTOR DVDR PX-716A Adapter: 1 ID: 1

Read mode : Secure
Utilize accurate stream : Yes
Defeat audio cache : Yes
Make use of C2 pointers : No

Read offset correction : 30
Overread into Lead-In and Lead-Out : No
Fill up missing offset samples with silence : Yes
Delete leading and trailing silent blocks : No
Null samples used in CRC calculations : Yes
Used interface : Native Win32 interface for Win NT & 2000

Used output format : User Defined Encoder
Selected bitrate : 1024 kBit/s
Quality : High
Add ID3 tag : No
Command line compressor : C:\Program Files (x86)\Exact Audio Copy\wavpack.exe
Additional command line options : -hlm %source%


TOC of the extracted CD

Track | Start | Length | Start sector | End sector
––––––––––––––––––––––––––––-
1 | 0:00.00 | 3:16.50 | 0 | 14749
2 | 3:16.50 | 4:05.47 | 14750 | 33171
3 | 7:22.22 | 2:48.00 | 33172 | 45771
4 | 10:10.22 | 2:14.70 | 45772 | 55891
5 | 12:25.17 | 2:48.35 | 55892 | 68526
6 | 15:13.52 | 2:21.13 | 68527 | 79114
7 | 17:34.65 | 2:33.15 | 79115 | 90604
8 | 20:08.05 | 2:07.40 | 90605 | 100169
9 | 22:15.45 | 2:05.00 | 100170 | 109544
10 | 24:20.45 | 3:35.57 | 109545 | 125726
11 | 27:56.27 | 2:08.03 | 125727 | 135329
12 | 30:04.30 | 2:40.05 | 135330 | 147334
13 | 32:44.35 | 2:28.00 | 147335 | 158434
14 | 35:12.35 | 2:47.25 | 158435 | 170984
15 | 37:59.60 | 2:05.02 | 170985 | 180361
16 | 40:04.62 | 2:46.55 | 180362 | 192866
17 | 42:51.42 | 2:22.53 | 192867 | 203569
18 | 45:14.20 | 2:42.22 | 203570 | 215741
19 | 47:56.42 | 2:48.05 | 215742 | 228346
20 | 50:44.47 | 2:40.63 | 228347 | 240409
21 | 53:25.35 | 2:27.27 | 240410 | 251461
22 | 55:52.62 | 3:12.48 | 251462 | 265909
23 | 59:05.35 | 3:20.52 | 265910 | 280961
24 | 62:26.12 | 2:30.63 | 280962 | 292274


Range status and errors

Selected range

Filename D:\wwphil\Helen Shapiro - Sensational\Helen Shapiro - Sensational.wav

Peak level 93.2 %
Extraction speed 3.7 X
Range quality 99.9 %
Test CRC 2FA029A1
Copy CRC 2FA029A1
Copy OK

No errors occurred


AccurateRip summary

Track 1 accurately ripped (confidence 2) [AB137ED4] (AR v1)
Track 2 accurately ripped (confidence 2) [EC1CB86F] (AR v1)
Track 3 accurately ripped (confidence 2) [7A53EE92] (AR v1)
Track 4 accurately ripped (confidence 2) [DD23A495] (AR v1)
Track 5 accurately ripped (confidence 2) [0DC3D2FE] (AR v1)
Track 6 accurately ripped (confidence 2) [C3DE7EE5] (AR v1)
Track 7 accurately ripped (confidence 2) [C9D1CCEC] (AR v1)
Track 8 accurately ripped (confidence 2) [C809DA50] (AR v1)
Track 9 accurately ripped (confidence 2) [AD02EF81] (AR v1)
Track 10 accurately ripped (confidence 2) [0EFC1418] (AR v1)
Track 11 accurately ripped (confidence 2) [69031423] (AR v1)
Track 12 accurately ripped (confidence 2) [EB68A542] (AR v1)
Track 13 accurately ripped (confidence 2) [4C3627CB] (AR v1)
Track 14 accurately ripped (confidence 2) [289AF48A] (AR v1)
Track 15 accurately ripped (confidence 1) [FFA7989B] (AR v2)
Track 16 accurately ripped (confidence 1) [1C9502A1] (AR v2)
Track 17 accurately ripped (confidence 1) [027D30FB] (AR v2)
Track 18 accurately ripped (confidence 2) [29AB73CA] (AR v1)
Track 19 accurately ripped (confidence 2) [185ED9D6] (AR v1)
Track 20 accurately ripped (confidence 2) [B511AB82] (AR v1)
Track 21 accurately ripped (confidence 2) [1CE3F5FD] (AR v1)
Track 22 accurately ripped (confidence 2) [1E5BEEB1] (AR v1)
Track 23 accurately ripped (confidence 2) [B884C609] (AR v1)
Track 24 accurately ripped (confidence 2) [3A0A4A82] (AR v1)

All tracks accurately ripped

End of status report

==== Log checksum 4ED88A26E4097BF5904574826FCD93F21E97107C365D4A3A7827B7C3E1F4FFC3 ====

foobar2000 1.2.6 / Dynamic Range Meter 1.1.1
log date: 2016-07-17 08:43:22

––––––––––––––––––––––––––––––––––––––––
Analyzed: Helen Shapiro / Sensational
––––––––––––––––––––––––––––––––––––––––

DR Peak RMS Duration Track
––––––––––––––––––––––––––––––––––––––––
DR11 -0.70 dB -13.80 dB 3:17 01-A Teenager Sings The Blues (stereo)
DR11 -1.29 dB -15.97 dB 4:06 02-Blues In The Night (stereo)
DR11 -1.04 dB -15.17 dB 2:48 03-Are You Lonesome Tonight (stereo)
DR11 -0.97 dB -13.10 dB 2:15 04-Tearaway Johnny (stereo)
DR13 -0.70 dB -16.85 dB 2:48 05-Without Your Love (stereo)
DR11 -2.59 dB -15.94 dB 2:21 06-Aren't You The Lucky One (stereo)
DR11 -0.65 dB -13.05 dB 2:33 07-Every One But The Right One (stereo)
DR12 -0.90 dB -15.16 dB 2:08 08-It's Alright With Me (stereo)
DR11 -1.56 dB -14.45 dB 2:05 09-Lookin' For My Heart (stereo)
DR12 -0.76 dB -14.36 dB 3:36 10-Basin Street Blues (stereo)
DR12 -0.97 dB -14.48 dB 2:08 11-You Must Be Readin' My Mind (stereo)
DR11 -1.82 dB -14.83 dB 2:40 12-Til I Hear The Truth From You (stereo)
DR12 -0.61 dB -14.35 dB 2:28 13-Sensational (stereo)
DR11 -0.96 dB -14.39 dB 2:47 14-Easy Come, Easy Go (stereo)
DR10 -1.28 dB -14.55 dB 2:05 15-Remember Me (stereo)
DR10 -3.86 dB -16.10 dB 2:47 16-The End Of The World (stereo)
DR10 -1.13 dB -13.54 dB 2:23 17-It Might As Well Rain Until September (stereo)
DR9 -4.30 dB -15.77 dB 2:42 18-Here In Your Arms (mono)
DR9 -3.79 dB -15.61 dB 2:48 19-Only Once (mono)
DR10 -4.31 dB -16.36 dB 2:41 20-Just A Line (mono)
DR10 -2.99 dB -14.22 dB 2:27 21-Forget About The Bad Things (mono)
DR10 -1.14 dB -13.24 dB 3:13 22-Wait A Little Longer (mono)
DR9 -3.47 dB -15.23 dB 3:21 23-In My Calendar (mono)
DR7 -5.87 dB -15.61 dB 2:31 24-An Empty House (mono)
––––––––––––––––––––––––––––––––––––––––

Number of tracks: 24
Official DR value: DR11

Samplerate: 44100 Hz
Channels: 2
Bits per sample: 16
Bitrate: 835 kbps
Codec: FLAC
================================================================================

[CUETools log; Date: 17.07.2016 8:43:16; Version: 2.1.5]
[CTDB TOCID: Vn2MwmDf5UbBCdO.hc5VkoSWnlM-] found.
Track | CTDB Status
1 | (2/2) Accurately ripped
2 | (2/2) Accurately ripped
3 | (2/2) Accurately ripped
4 | (2/2) Accurately ripped
5 | (2/2) Accurately ripped
6 | (2/2) Accurately ripped
7 | (2/2) Accurately ripped
8 | (2/2) Accurately ripped
9 | (2/2) Accurately ripped
10 | (2/2) Accurately ripped
11 | (2/2) Accurately ripped
12 | (2/2) Accurately ripped
13 | (2/2) Accurately ripped
14 | (2/2) Accurately ripped
15 | (2/2) Accurately ripped
16 | (2/2) Accurately ripped
17 | (2/2) Accurately ripped
18 | (2/2) Accurately ripped
19 | (2/2) Accurately ripped
20 | (2/2) Accurately ripped
21 | (2/2) Accurately ripped
22 | (2/2) Accurately ripped
23 | (2/2) Accurately ripped
24 | (2/2) Accurately ripped
[AccurateRip ID: 00384363-03c4bcc1-5d0f3918] found.
Track [ CRC | V2 ] Status
01 [ab137ed4|9d3a8854] (2+0/2) Accurately ripped
02 [ec1cb86f|315d3da4] (2+0/2) Accurately ripped
03 [7a53ee92|26d7f8a6] (2+0/2) Accurately ripped
04 [dd23a495|45ee425a] (2+0/2) Accurately ripped
05 [0dc3d2fe|17c8df8e] (2+0/2) Accurately ripped
06 [c3de7ee5|367f083d] (2+0/2) Accurately ripped
07 [c9d1ccec|19b81ed4] (2+0/2) Accurately ripped
08 [c809da50|e892b7b4] (2+0/2) Accurately ripped
09 [ad02ef81|7a78fee8] (2+0/2) Accurately ripped
10 [0efc1418|7d094bea] (2+0/2) Accurately ripped
11 [69031423|74537bcc] (2+0/2) Accurately ripped
12 [eb68a542|f74c127d] (2+0/2) Accurately ripped
13 [4c3627cb|1f03f226] (2+0/2) Accurately ripped
14 [289af48a|081d0b96] (2+0/2) Accurately ripped
15 [e65b36cd|ffa7989b] (1+1/2) Accurately ripped
16 [c40499ba|1c9502a1] (1+1/2) Accurately ripped
17 [6b8ba8a3|027d30fb] (1+1/2) Accurately ripped
18 [29ab73ca|98da6103] (2+0/2) Accurately ripped
19 [185ed9d6|ec0c9348] (2+0/2) Accurately ripped
20 [b511ab82|e2169f4c] (2+0/2) Accurately ripped
21 [1ce3f5fd|e1bde19a] (2+0/2) Accurately ripped
22 [1e5beeb1|f4b1e370] (2+0/2) Accurately ripped
23 [b884c609|227e1b0a] (2+0/2) Accurately ripped
24 [3a0a4a82|9d92a5b7] (2+0/2) Accurately ripped

Track Peak [ CRC32 ] [W/O NULL] [ LOG ]
– 93,2 [2FA029A1] [DECDC429] CRC32
01 92,2 [9274E903] [0DF163BD]
02 86,2 [990A61C5] [D3FF7E3D]
03 88,7 [0F1064E9] [FFF67FEC]
04 89,3 [E2290C36] [5596FBC0]
05 92,2 [6871D7EB] [6333294D]
06 74,2 [D10E2446] [A375C26E]
07 92,8 [844999D4] [7A4215C9]
08 90,1 [1BE0D50A] [7EDBFC24]
09 83,5 [D91E7155] [FA4697B6]
10 91,5 [425FA84C] [4DECEF6C]
11 89,4 [A75D630D] [0E8D8E8B]
12 81,0 [4CD9E781] [F1EE17C2]
13 93,2 [99B029B4] [BAEC8447]
14 89,5 [8CE58E86] [BDE0069B]
15 86,3 [3D6F3495] [07CD217F]
16 64,1 [7A1325AA] [0FF24A84]
17 87,7 [92805BAE] [93D1F273]
18 60,9 [7249CEFA] [D0F64C81]
19 64,6 [0A700C18] [5C524711]
20 60,8 [7F4A715B] [D3FF3B61]
21 70,8 [36864C80] [32841BA4]
22 87,6 [978FB5FB] [2C344B5F]
23 67,0 [45446FDB] [D969474E]
24 50,8 [E23B1BEF] [8D6DC0F0]

Helen Shapiro - Sensational! The Uncollected Helen Shapiro (1995)

Helen Shapiro - Sensational! The Uncollected Helen Shapiro (1995)

All thanks go to wwphil

Visit my blog!

Download:
Nitroflare: FLAC-part 1 | FLAC-part 2 | Scans | mp3
FileJoker: FLAC-part 1 | FLAC-part 2 | Scans | mp3