Subcategories

Helen Reddy - Ear Candy (1977) & We'll Sing In The Sunshine (1978) [2010, Remastered Reissue]

Posted By: BlondStyle
Helen Reddy - Ear Candy (1977) & We'll Sing In The Sunshine (1978) [2010, Remastered Reissue]

Helen Reddy - Ear Candy (1977) & We'll Sing In The Sunshine (1978) [2010, Remastered Reissue]
Pop/Rock, Soft Rock, Vocal | EAC Rip | FLAC, Tracks+CUE+LOG+Scans (JPEG) | 01:09:31 | 449,86 Mb
Label: Raven Records (AU) | Cat.# RVCD-312 | Released: 2010-02-23 (1977/1978)

Raven’s 2010 two-fer combines Helen Reddy’s final two albums for Capitol Records: 1977’s "Ear Candy" and 1978’s "We’ll Sing in the Sunshine", both co-productions with Kim Fowley. Ear Candy qualifies as a genuine oddity in Reddy’s catalog, a record that finds the queen of Australian soft rock paired with the king of L.A. sleaze, Kim Fowley, and his henchman Earle Mankey, a pair who were just coming off of the teenage kicks of the Runaways. Fowley and Mankey pushed Reddy toward unusual territory, but that doesn’t mean they lead her toward the gutter: they encouraged Reddy to write, prompting a surprising five originals on this ten-track album, let her dabble with synthesizers on the lurching “Long Distance Love” and had her do a Cajun stomp with “Laissez Les Bontempts Rouler.” While “Midnight Skies” bears trace elements of Fowley’s bubblegum it could have been the theme song for a sugary Saturday morning Sid & Marty Krofft ripoff in 1972 and the reverbed “Baby, I’m a Star” plays a bit like diluted Lee Hazlewood, Fowley and Mankey keep Reddy within her soft rock wheelhouse, and while there are no big hits here, there are few dull spots, and the odd moments help make this one of Reddy’s most interesting LPs. Following a sojourn to film Pete’s Dragon for Disney, Reddy returned in 1979 with We’ll Sing in the Sunshine, another co-production from the king of L.A. weirdness, Kim Fowley. Here, Fowley teamed with veteran L.A. arranger Nick DeCaro instead of Sparks guitarist Earle Mankey, and the results are considerably slicker and redolent of the polyester lounge of the late ‘70s, filled with shiny strings and disco flirtations that all wind up sounding a bit like TV theme songs. There are some changes of pace everybody works up a pretty good head of steam on a rollicking cover of the Beatles’ “One After 909,” and the vaudevillian shuffle of the title track doesn’t fit with the rest but the rest of this is spangly soft rock, often fairly well-crafted but riding on its slick commercial sound, which makes for something that’s an appealing period artifact, but not among Reddy’s best records.
~Review by Stephen Thomas Erlewine

Helen Reddy - Ear Candy (1977) & We'll Sing In The Sunshine (1978) [2010, Remastered Reissue]

Helen Reddy - Ear Candy (1977) & We'll Sing In The Sunshine (1978) [2010, Remastered Reissue]




Release of these albums: "Ear Candy" - 1977, April [LP Capitol Records, Cat.# SO-11640, New Zealand; [i]"We'll Sing In The Sunshine" - 1978, July [LP Capitol Records, Cat.# SW-11759, USA]
Release of this CD: 2010, February, 23 [CD Raven Records (AU), Cat.# RVCD-312 / UPC: 612657031223]
This compilation © 2010 Raven Records Pty Limited.
Made in Australia.

Credits:

Arranged By, Conductor – Chris Darrow (tracks: 5, 6), David Carr (tracks: 15, 18), Earle Mankey (tracks: 9), Kim Fowley (tracks: 9), Marc Peters (tracks: 1, 7, 8, 12, 13, 17, 20), Nick DeCaro (tracks: 11, 14, 16, 19), Richard Henn (tracks: 2 to 4, 10)
Producer – Earle Mankey (tracks: 1 to 10), Kim Fowley, Nick DeCaro (tracks: 11 to 20)
Reissue Producer – Ian McFarlane, Peter Mueller, Peter Shillito


Tracklist:

Ear Candy (1977)

01. You're My World (02:45)
(Gino Paoli, Umberto Bindi)
[Lyrics By [English] – Carl Sigman]

02. One More Night (03:35)
(Stephen Bishop)
03. Long Distance Love (02:56)
(Becky Hobbs)
04. If It's Magic (03:51)
(Stevie Wonder)
05. Aquarius Miracle (02:37)
(Helen Reddy, Kim Fowley, Toni Lamond)
06. Laissez Les Bontemps Rouler (02:31)
(Casey Kelly, Julie Didier)
07. The Happy Girls (05:04)
(Earle Mankey, Helen Reddy, Kim Fowley, Richard Henn)
08. Midnight Skies (03:34)
(Helen Reddy, Kim Fowley, Richard Henn)
09. Baby, I'm A Star (04:04)
(Earle Mankey, Helen Reddy, Kim Fowley)
10. Thank You (03:53)
(Earle Mankey, Helen Reddy, Kim Fowley, Richard Henn)

We'll Sing In The Sunshine (1978)

11. Ready Or Not (03:54)
(Amber DiLena, Jack Keller)
12. All I Ever Need (03:32)
(Jack Sawyer)
13. Poor Little Fool (04:12)
(Jeff Lynne)
14. One After 909 (03:04)
(John Lennon, Paul McCartney)
15. I'd Rather Be Alone (04:20)
(Bruce Roberts)
16. Lady Of The Night (03:21)
(Ben Weisman, Evie Sands, Richard Germinaro)
17. Catch My Breath (02:59)
(Alan O'Day)
18. We'll Sing In The Sunshine (03:38)
(Gale Garnett)
19. Blue (02:39)
(Joe Raposo)
20. If I Ever Had To Say Goodbye To You (03:03)
(Steve Gibb)

Exact Audio Copy V0.99 prebeta 4 from 23. January 2008

Отчёт EAC об извлечении, выполненном 3. июля 2010, 17:55

Helen Reddy / Ear Candy / We'll Sing In The Sunshine

Дисковод: HL-DT-STDVDRAM GSA-E40N Adapter: 1 ID: 0

Режим чтения : Достоверность
Использование точного потока : Да
Отключение кэша аудио : Да
Использование указателей C2 : Нет

Коррекция смещения при чтении : 667
Способность читать области Lead-in и Lead-out : Нет
Заполнение пропущенных сэмплов тишиной : Да
Удаление блоков с тишиной в начале и конце : Нет
При вычислениях CRC использовались нулевые сэмплы : Да
Интерфейс : Установленный внешний ASPI-интерфейс
Обработка зазоров : Добавлено к предыдущему треку

Выходной формат : Пользовательский кодировщик
Выбранный битрейт : 768 kBit/s
Качество : Высокий
Добавление ID3-тэга : Нет
Утилита сжатия : C:\Program Files\Exact Audio Copy\FLAC\FLAC.EXE
Дополнительные параметры : -6 -V -T "ARTIST=%a" -T "TITLE=%t" -T "ALBUM=%g" -T "DATE=%y" -T "TRACKNUMBER=%n" -T "GENRE=%m" -T "COMMENT=%e" %s -o %d


TOC извлечённого CD

Трек | Старт | Длительность | Начальный сектор | Конечный сектор
––––––––––––––––––––––––––––––––––-
1 | 0:00.00 | 2:44.62 | 0 | 12361
2 | 2:44.62 | 3:34.59 | 12362 | 28470
3 | 6:19.46 | 2:55.64 | 28471 | 41659
4 | 9:15.35 | 3:50.42 | 41660 | 58951
5 | 13:06.02 | 2:36.67 | 58952 | 70718
6 | 15:42.69 | 2:31.21 | 70719 | 82064
7 | 18:14.15 | 5:03.73 | 82065 | 104862
8 | 23:18.13 | 3:34.18 | 104863 | 120930
9 | 26:52.31 | 4:03.73 | 120931 | 139228
10 | 30:56.29 | 3:52.52 | 139229 | 156680
11 | 34:49.06 | 3:53.68 | 156681 | 174223
12 | 38:42.74 | 3:32.03 | 174224 | 190126
13 | 42:15.02 | 4:12.01 | 190127 | 209027
14 | 46:27.03 | 3:04.00 | 209028 | 222827
15 | 49:31.03 | 4:19.74 | 222828 | 242326
16 | 53:51.02 | 3:20.74 | 242327 | 257400
17 | 57:12.01 | 2:59.01 | 257401 | 270826
18 | 60:11.02 | 3:38.04 | 270827 | 287180
19 | 63:49.06 | 2:39.00 | 287181 | 299105
20 | 66:28.06 | 3:02.53 | 299106 | 312808


Трек 1

Имя файла H:\Helen Reddy - Ear Candy & We'll Sing In The Sunshine\01 - You're My World.wav

Длина предзазора 0:00:02.00

Пиковый уровень 100.0 %
Качество трека 100.0 %
CRC теста 3DEAEEF8
CRC копии 3DEAEEF8
Копирование… OK

Трек 2

Имя файла H:\Helen Reddy - Ear Candy & We'll Sing In The Sunshine\02 - One More Night.wav

Длина предзазора 0:00:02.74

Пиковый уровень 100.0 %
Качество трека 100.0 %
CRC теста 5CB98181
CRC копии 5CB98181
Копирование… OK

Трек 3

Имя файла H:\Helen Reddy - Ear Candy & We'll Sing In The Sunshine\03 - Long Distance Love.wav

Длина предзазора 0:00:02.72

Пиковый уровень 100.0 %
Качество трека 100.0 %
CRC теста 18422DD4
CRC копии 18422DD4
Копирование… OK

Трек 4

Имя файла H:\Helen Reddy - Ear Candy & We'll Sing In The Sunshine\04 - If It's Magic.wav

Длина предзазора 0:00:02.66

Пиковый уровень 100.0 %
Качество трека 100.0 %
CRC теста B3DC1ED1
CRC копии B3DC1ED1
Копирование… OK

Трек 5

Имя файла H:\Helen Reddy - Ear Candy & We'll Sing In The Sunshine\05 - Aquarius Miracle.wav

Длина предзазора 0:00:02.53

Пиковый уровень 76.3 %
Качество трека 100.0 %
CRC теста 5E5F0E20
CRC копии 5E5F0E20
Копирование… OK

Трек 6

Имя файла H:\Helen Reddy - Ear Candy & We'll Sing In The Sunshine\06 - Laissez Les Bontemps Rouler.wav

Длина предзазора 0:00:02.82

Пиковый уровень 100.0 %
Качество трека 99.9 %
CRC теста 3B9F209D
CRC копии 3B9F209D
Копирование… OK

Трек 7

Имя файла H:\Helen Reddy - Ear Candy & We'll Sing In The Sunshine\07 - The Happy Girls.wav

Длина предзазора 0:00:02.50

Пиковый уровень 100.0 %
Качество трека 99.7 %
CRC теста 8557E397
CRC копии 8557E397
Копирование… OK

Трек 8

Имя файла H:\Helen Reddy - Ear Candy & We'll Sing In The Sunshine\08 - Midnight Skies.wav

Длина предзазора 0:00:02.66

Пиковый уровень 98.2 %
Качество трека 99.5 %
CRC теста A88646BC
CRC копии A88646BC
Копирование… OK

Трек 9

Имя файла H:\Helen Reddy - Ear Candy & We'll Sing In The Sunshine\09 - Baby, I'm A Star.wav

Длина предзазора 0:00:02.56

Пиковый уровень 100.0 %
Качество трека 99.5 %
CRC теста FB58517E
CRC копии FB58517E
Копирование… OK

Трек 10

Имя файла H:\Helen Reddy - Ear Candy & We'll Sing In The Sunshine\10 - Thank You.wav

Длина предзазора 0:00:02.25

Пиковый уровень 94.0 %
Качество трека 99.5 %
CRC теста 7D5C3383
CRC копии 7D5C3383
Копирование… OK

Трек 11

Имя файла H:\Helen Reddy - Ear Candy & We'll Sing In The Sunshine\11 - Ready Or Not.wav

Длина предзазора 0:00:03.45

Пиковый уровень 100.0 %
Качество трека 100.0 %
CRC теста DD098E4B
CRC копии DD098E4B
Копирование… OK

Трек 12

Имя файла H:\Helen Reddy - Ear Candy & We'll Sing In The Sunshine\12 - All I Ever Need.wav

Длина предзазора 0:00:02.65

Пиковый уровень 100.0 %
Качество трека 100.0 %
CRC теста 6FAE45FB
CRC копии 6FAE45FB
Копирование… OK

Трек 13

Имя файла H:\Helen Reddy - Ear Candy & We'll Sing In The Sunshine\13 - Poor Little Fool.wav

Длина предзазора 0:00:02.76

Пиковый уровень 100.0 %
Качество трека 99.9 %
CRC теста 5BC74547
CRC копии 5BC74547
Копирование… OK

Трек 14

Имя файла H:\Helen Reddy - Ear Candy & We'll Sing In The Sunshine\14 - One After 909.wav

Длина предзазора 0:00:02.74

Пиковый уровень 100.0 %
Качество трека 100.0 %
CRC теста 1B45E63D
CRC копии 1B45E63D
Копирование… OK

Трек 15

Имя файла H:\Helen Reddy - Ear Candy & We'll Sing In The Sunshine\15 - I'd Rather Be Alone.wav

Длина предзазора 0:00:02.77

Пиковый уровень 100.0 %
Качество трека 99.9 %
CRC теста 77618DBD
CRC копии 77618DBD
Копирование… OK

Трек 16

Имя файла H:\Helen Reddy - Ear Candy & We'll Sing In The Sunshine\16 - Lady Of The Night.wav

Длина предзазора 0:00:02.68

Пиковый уровень 100.0 %
Качество трека 100.0 %
CRC теста B77D8698
CRC копии B77D8698
Копирование… OK

Трек 17

Имя файла H:\Helen Reddy - Ear Candy & We'll Sing In The Sunshine\17 - Catch My Breath.wav

Длина предзазора 0:00:02.73

Пиковый уровень 100.0 %
Качество трека 100.0 %
CRC теста 1A9FB407
CRC копии 1A9FB407
Копирование… OK

Трек 18

Имя файла H:\Helen Reddy - Ear Candy & We'll Sing In The Sunshine\18 - We'll Sing In The Sunshine.wav

Длина предзазора 0:00:02.46

Пиковый уровень 96.8 %
Качество трека 100.0 %
CRC теста 87F54D2C
CRC копии 87F54D2C
Копирование… OK

Трек 19

Имя файла H:\Helen Reddy - Ear Candy & We'll Sing In The Sunshine\19 - Blue.wav

Длина предзазора 0:00:02.72

Пиковый уровень 100.0 %
Качество трека 100.0 %
CRC теста BF1F80B9
CRC копии BF1F80B9
Копирование… OK

Трек 20

Имя файла H:\Helen Reddy - Ear Candy & We'll Sing In The Sunshine\20 - If I Ever Had To Say Goodbye To You.wav

Длина предзазора 0:00:02.68

Пиковый уровень 100.0 %
Качество трека 100.0 %
CRC теста B262F417
CRC копии B262F417
Копирование… OK

Ошибок не произошло

Конец отчёта

––––––––––––––––––––––––––––––––––––––––
Analyzed: Helen Reddy / Ear Candy / We'll Sing In The Sunshine
––––––––––––––––––––––––––––––––––––––––

DR Peak RMS Duration Track
––––––––––––––––––––––––––––––––––––––––
DR10 0.00 dB -13.32 dB 2:45 01-You're My World
DR11 0.00 dB -14.73 dB 3:35 02-One More Night
DR11 0.00 dB -13.70 dB 2:56 03-Long Distance Love
DR10 0.00 dB -14.96 dB 3:51 04-If It's Magic
DR14 -2.35 dB -18.74 dB 2:37 05-Aquarius Miracle
DR11 0.00 dB -11.93 dB 2:31 06-Laissez Les Bontemps Rouler
DR9 0.00 dB -12.39 dB 5:04 07-The Happy Girls
DR12 -0.15 dB -14.79 dB 3:34 08-Midnight Skies
DR12 0.00 dB -15.10 dB 4:04 09-Baby, I'm A Star
DR12 -0.53 dB -15.96 dB 3:53 10-Thank You
DR13 0.00 dB -14.91 dB 3:54 11-Ready Or Not
DR12 0.00 dB -16.97 dB 3:32 12-All I Ever Need
DR11 0.00 dB -13.76 dB 4:12 13-Poor Little Fool
DR12 0.00 dB -13.29 dB 3:04 14-One After 909
DR12 0.00 dB -18.11 dB 4:20 15-I'd Rather Be Alone
DR12 0.00 dB -14.49 dB 3:21 16-Lady Of The Night
DR12 0.00 dB -14.56 dB 2:59 17-Catch My Breath
DR13 -0.28 dB -15.84 dB 3:38 18-We'll Sing In The Sunshine
DR13 0.00 dB -15.36 dB 2:39 19-Blue
DR12 0.00 dB -16.62 dB 3:03 20-If I Ever Had To Say Goodbye To You
––––––––––––––––––––––––––––––––––––––––

Number of tracks: 20
Official DR value: DR12

Samplerate: 44100 Hz
Channels: 2
Bits per sample: 16
Bitrate: 760 kbps
Codec: FLAC
================================================================================

Thanks to goldenday

See also:
Helen Reddy - All-Time Greatest Hits (1991)

♫~Welcome To My Blog~♫

password: BlondStyle