Subcategories

Helen Reddy - Love Song For Jeffrey (1974) & Free And Easy (1974) [2004, Remastered Reissue]

Posted By: BlondStyle
Helen Reddy - Love Song For Jeffrey (1974) & Free And Easy (1974) [2004, Remastered Reissue]

Helen Reddy - Love Song For Jeffrey (1974) & Free And Easy (1974) [2004, Remastered Reissue]
Pop/Rock, Soft Rock, Vocal | EAC Rip | FLAC, Tracks+CUE+LOG+Scans (JPEG) | 01:11:43 | 524,91 Mb
Label: Raven Records (AU) | Cat.# RVCD-170 | Released: 2004-01-27 (1974)
Helen Reddy - Love Song For Jeffrey (1974) & Free And Easy (1974) [2004, Remastered Reissue]

Two of Helen Reddy's 1974 albums, Love Song for Jeffrey and Free and Easy, are combined onto one CD on this release, with the addition of historical liner notes and a couple of tracks from her 1978 album Live in London. Reddy was near the peak of her popularity in 1974, but although each album has a couple of hit singles, they're erratic works in which the singer flits uncomfortably between rock-influenced styles and more middle-of-the-road vocals. Love Song for Jeffrey yielded hit singles in "Keep on Singing" and "You and Me Against the World," filled out with covers of songs by writers such as Billy Joel, Jim Croce, Barry Mann, and Cynthia Weil, and tunes on which Albert Hammond and Carole Bayer Sager worked with collaborators. There's a dated '70s stridency to the more forceful cuts, like "That Old American Dream" and "Keep on Singing," while the ballads tread on soppiness, suggesting Reddy might have been more at home as a supper club singer. Free and Easy was powered in main by her number one American hit "Angie Baby," and is slightly tougher in overall tone, though the material is pretty average mid-'70s adult-oriented pop. Her fondness for ballads remained unabated with the inclusion of items like Don McLean's "You Have Lived," while "Emotion" gave her another US hit, albeit one that fell just outside the Top 20. Whatever their mediocrity, both records were pretty successful, Love Song for Jeffrey almost making the Top Ten and Free and Easy rising to number eight.
~Review by Richie Unterberger

Helen Reddy - Love Song For Jeffrey (1974) & Free And Easy (1974) [2004, Remastered Reissue]

Helen Reddy - Love Song For Jeffrey (1974) & Free And Easy (1974) [2004, Remastered Reissue]




Release of these albums: "Love Song For Jeffrey" - 1974, April [LP Capitol Records, Cat.# SO-11284, Australia; "Free And Easy" - 1974, October [LP Capitol Records, Cat.# ST-11348, New Zealand]
Release of this CD: 2004, January, 27 [CD Raven Records (AU), Cat.# RVCD-170 / UPC: 612657017029]
This compilation © 2004 Raven Records Pty Limited.
Made in Australia

Note: bonus tracks 21, 22 recorded live at the London Palladium from the 1978 EMI/Capitol Records release "Live In London" SKBO-511873

Credits:

Arranged By – Artie Butler (tracks: 1, 3, 4, 6 to 10), Michael Omartian (tracks: 2, 5), Nick DeCaro (tracks: 11 to 20)
Conductor – Artie Butler (tracks: 1, 3, 4, 6 to 10), Lenny Coltun (tracks: 21, 22), Michael Omartian (tracks: 2, 5), Nick DeCaro (tracks: 11 to 20)
Producer – Helen Reddy (tracks: 21, 22), Joe Wissert (tracks: 11 to 20), John Palladino (tracks: 21, 22), Tom Catalano (tracks: 1 to 10)
Reissue Producer [CD Reissue Conceived By], Compiled By – Glenn A. Baker, Ian McFarlane, Kevin Mueller, Peter Shillito


Tracklist:

Love Song For Jeffrey (1974)

01. That Old American Dream (02:30)
(Albert Hammond, Mike Hazlewood)
02. You're My Home (03:04)
(Billy Joel)
03. Songs (03:53)
(Barry Mann, Cynthia Weil)
04. I Got A Name (03:35)
(Charlie Fox, Norman Gimbel)
05. Keep On Singing (03:05)
(Bobby Hart, Danny Janssen)
06. You And Me Against The World (03:12)
(Kenny Ascher, Paul Williams)
07. Ah, My Sister (03:06)
(Carole Bayer Sager, Peter Allen)
08. Pretty, Pretty (03:26)
(Hal Hackady, Peter Allen)
09. Love Song For Jeffrey (02:44)
(Helen Reddy, Peter Allen)
10. Stella By Starlight (03:54)
(Ned Washington, Victor Young)

Free And Easy (1974)

11. Angie Baby (03:31)
(Alan O'Day)
12. Raised On Rock (03:06)
(Mark James)
13. I've Been Wanting You So Long (03:41)
(Peter Allen, Jeff Barry)
14. You Have Lived (03:51)
(Don McLean)
15. I'll Be Your Audience (03:21)
(Becky Hobbs, Lewis Anderson)
16. Emotion (Amoreuse) (04:14)
(Patti Dahlstrom, Véronique Marie Sanson)
17. Free And Easy (02:47)
(Tom Jans)
18. Loneliness (03:35)
(Kenny Ascher, Paul Williams)
19. Think I'll Write A Song (02:25)
(Helen Reddy, Peter Allen)
20. Showbiz (feat. Pointer Sisters) (03:06)
(Dennis Tracy)

Bonus Tracks:

21. Angie Baby (Live In London, 1978) (03:20)
(Alan O'Day)
22. The Entertainer (Live In London, 1978) (02:16)
(Billy Joel)

Exact Audio Copy V0.99 prebeta 5 from 4. May 2009

EAC extraction logfile from 18. October 2009, 11:23

Helen Reddy / Love Song For Jeffrey + Free And Easy (Raven 2 on 1 - RVCD-170)

Used drive : HL-DT-STDVD-RAM GSA-H55N Adapter: 1 ID: 0

Read mode : Secure
Utilize accurate stream : Yes
Defeat audio cache : Yes
Make use of C2 pointers : No

Read offset correction : 102
Overread into Lead-In and Lead-Out : No
Fill up missing offset samples with silence : Yes
Delete leading and trailing silent blocks : No
Null samples used in CRC calculations : Yes
Used interface : Installed external ASPI interface
Gap handling : Appended to previous track

Used output format : User Defined Encoder
Selected bitrate : 768 kBit/s
Quality : High
Add ID3 tag : No
Command line compressor : C:\Program Files\Exact Audio Copy\FLAC\FLAC.EXE
Additional command line options : -V -8 -T "artist=%a" -T "title=%t" -T "album=%g" -T "date=%y" -T "tracknumber=%n" -T "genre=%m" %s


TOC of the extracted CD

Track | Start | Length | Start sector | End sector
––––––––––––––––––––––––––––-
1 | 0:00.00 | 2:29.38 | 0 | 11212
2 | 2:29.38 | 3:04.26 | 11213 | 25038
3 | 5:33.64 | 3:53.00 | 25039 | 42513
4 | 9:26.64 | 3:35.00 | 42514 | 58638
5 | 13:01.64 | 3:05.24 | 58639 | 72537
6 | 16:07.13 | 3:11.50 | 72538 | 86912
7 | 19:18.63 | 3:06.28 | 86913 | 100890
8 | 22:25.16 | 3:26.00 | 100891 | 116340
9 | 25:51.16 | 2:44.25 | 116341 | 128665
10 | 28:35.41 | 3:53.46 | 128666 | 146186
11 | 32:29.12 | 3:30.52 | 146187 | 161988
12 | 35:59.64 | 3:06.24 | 161989 | 175962
13 | 39:06.13 | 3:41.16 | 175963 | 192553
14 | 42:47.29 | 3:50.54 | 192554 | 209857
15 | 46:38.08 | 3:21.33 | 209858 | 224965
16 | 49:59.41 | 4:14.30 | 224966 | 244045
17 | 54:13.71 | 2:47.26 | 244046 | 256596
18 | 57:01.22 | 3:34.42 | 256597 | 272688
19 | 60:35.64 | 2:25.00 | 272689 | 283563
20 | 63:00.64 | 3:06.24 | 283564 | 297537
21 | 66:07.13 | 3:20.24 | 297538 | 312561
22 | 69:27.37 | 2:15.41 | 312562 | 322727


Track 1

Filename H:\EAC Rips\Helen Reddy\01 - That Old American Dream.wav

Pre-gap length 0:00:02.00

Peak level 100.0 %
Track quality 99.8 %
Test CRC 153AFAE2
Copy CRC 153AFAE2
Accurately ripped (confidence 1) [48DDB20A]
Copy OK

Track 2

Filename H:\EAC Rips\Helen Reddy\02 - You're My Home.wav

Pre-gap length 0:00:02.74

Peak level 100.0 %
Track quality 100.0 %
Test CRC 87BCC571
Copy CRC 87BCC571
Accurately ripped (confidence 1) [7DF98AE8]
Copy OK

Track 3

Filename H:\EAC Rips\Helen Reddy\03 - Songs.wav

Pre-gap length 0:00:02.77

Peak level 100.0 %
Track quality 100.0 %
Test CRC 27CE8E6D
Copy CRC 27CE8E6D
Accurately ripped (confidence 1) [B5881884]
Copy OK

Track 4

Filename H:\EAC Rips\Helen Reddy\04 - I Got A Name.wav

Pre-gap length 0:00:02.76

Peak level 100.0 %
Track quality 100.0 %
Test CRC DEBFC918
Copy CRC DEBFC918
Accurately ripped (confidence 1) [1F319717]
Copy OK

Track 5

Filename H:\EAC Rips\Helen Reddy\05 - Keep On Singing.wav

Pre-gap length 0:00:01.81

Peak level 99.8 %
Track quality 100.0 %
Test CRC 90C7BA64
Copy CRC 90C7BA64
Accurately ripped (confidence 1) [3CC162A5]
Copy OK

Track 6

Filename H:\EAC Rips\Helen Reddy\06 - You And Me Against The World.wav

Pre-gap length 0:00:02.73

Peak level 100.0 %
Track quality 100.0 %
Test CRC DAD0CD3E
Copy CRC DAD0CD3E
Accurately ripped (confidence 1) [7DBAF01E]
Copy OK

Track 7

Filename H:\EAC Rips\Helen Reddy\07 - Ah, My Sister.wav

Pre-gap length 0:00:02.20

Peak level 100.0 %
Track quality 100.0 %
Test CRC 34C54B6A
Copy CRC 34C54B6A
Accurately ripped (confidence 1) [8D2BEA30]
Copy OK

Track 8

Filename H:\EAC Rips\Helen Reddy\08 - Pretty, Pretty.wav

Pre-gap length 0:00:02.69

Peak level 99.0 %
Track quality 100.0 %
Test CRC 8F178F5C
Copy CRC 8F178F5C
Accurately ripped (confidence 1) [161A6FE0]
Copy OK

Track 9

Filename H:\EAC Rips\Helen Reddy\09 - Love Song For Jeffrey.wav

Pre-gap length 0:00:02.38

Peak level 100.0 %
Track quality 100.0 %
Test CRC 7C1393EF
Copy CRC 7C1393EF
Accurately ripped (confidence 1) [8F760295]
Copy OK

Track 10

Filename H:\EAC Rips\Helen Reddy\10 - Stella By Starlight.wav

Pre-gap length 0:00:02.69

Peak level 100.0 %
Track quality 100.0 %
Test CRC 26D604E9
Copy CRC 26D604E9
Accurately ripped (confidence 1) [3B010D9F]
Copy OK

Track 11

Filename H:\EAC Rips\Helen Reddy\11 - Angie Baby.wav

Pre-gap length 0:00:02.16

Peak level 100.0 %
Track quality 100.0 %
Test CRC D7BA1457
Copy CRC D7BA1457
Accurately ripped (confidence 1) [F57A2697]
Copy OK

Track 12

Filename H:\EAC Rips\Helen Reddy\12 - Raised On Rock.wav

Pre-gap length 0:00:02.76

Peak level 100.0 %
Track quality 100.0 %
Test CRC B189A495
Copy CRC B189A495
Accurately ripped (confidence 1) [C4042BC9]
Copy OK

Track 13

Filename H:\EAC Rips\Helen Reddy\13 - I've Been Waiting You So Long.wav

Pre-gap length 0:00:02.74

Peak level 100.0 %
Track quality 100.0 %
Test CRC 28A55BDB
Copy CRC 28A55BDB
Accurately ripped (confidence 1) [964D4DA5]
Copy OK

Track 14

Filename H:\EAC Rips\Helen Reddy\14 - You Have Lived.wav

Pre-gap length 0:00:02.73

Peak level 100.0 %
Track quality 100.0 %
Test CRC C0B8A58F
Copy CRC C0B8A58F
Accurately ripped (confidence 1) [3FEF553A]
Copy OK

Track 15

Filename H:\EAC Rips\Helen Reddy\15 - I'll Be Your Audience.wav

Pre-gap length 0:00:02.77

Peak level 100.0 %
Track quality 100.0 %
Test CRC 6AF2B0D5
Copy CRC 6AF2B0D5
Accurately ripped (confidence 1) [CD186721]
Copy OK

Track 16

Filename H:\EAC Rips\Helen Reddy\16 - Emotion.wav

Pre-gap length 0:00:02.77

Peak level 100.0 %
Track quality 100.0 %
Test CRC 193E327E
Copy CRC 193E327E
Accurately ripped (confidence 1) [F2A74349]
Copy OK

Track 17

Filename H:\EAC Rips\Helen Reddy\17 - Free And Easy.wav

Pre-gap length 0:00:02.73

Peak level 100.0 %
Track quality 99.9 %
Test CRC 82DF08AD
Copy CRC 82DF08AD
Accurately ripped (confidence 1) [29A36BA0]
Copy OK

Track 18

Filename H:\EAC Rips\Helen Reddy\18 - Loneliness.wav

Pre-gap length 0:00:02.69

Peak level 100.0 %
Track quality 100.0 %
Test CRC A54680D4
Copy CRC A54680D4
Accurately ripped (confidence 1) [7221C962]
Copy OK

Track 19

Filename H:\EAC Rips\Helen Reddy\19 - Think I'll Write A Song.wav

Pre-gap length 0:00:02.77

Peak level 98.5 %
Track quality 100.0 %
Test CRC 26CAFC0D
Copy CRC 26CAFC0D
Accurately ripped (confidence 1) [6EF50071]
Copy OK

Track 20

Filename H:\EAC Rips\Helen Reddy\20 - Showbiz.wav

Pre-gap length 0:00:02.76

Peak level 100.0 %
Track quality 100.0 %
Test CRC 5261E260
Copy CRC 5261E260
Accurately ripped (confidence 1) [A70B0EC3]
Copy OK

Track 21

Filename H:\EAC Rips\Helen Reddy\21 - Angie Baby (Live) (Bonus Track).wav

Pre-gap length 0:00:02.68

Peak level 100.0 %
Track quality 100.0 %
Test CRC 9F28F2C1
Copy CRC 9F28F2C1
Accurately ripped (confidence 1) [2058E99B]
Copy OK

Track 22

Filename H:\EAC Rips\Helen Reddy\22 - The Entertainer (Bonus Track).wav

Peak level 100.0 %
Track quality 100.0 %
Test CRC EE344681
Copy CRC EE344681
Accurately ripped (confidence 1) [14190EAF]
Copy OK


All tracks accurately ripped

No errors occurred

End of status report

––––––––––––––––––––––––––––––––––––––––
Analyzed: Helen Reddy / Love Song For Jeffrey + Free And Easy (Raven 2 on 1 - RVCD-170)
––––––––––––––––––––––––––––––––––––––––

DR Peak RMS Duration Track
––––––––––––––––––––––––––––––––––––––––
DR12 0.00 dB -13.24 dB 2:30 01-That Old American Dream
DR12 0.00 dB -16.00 dB 3:04 02-You're My Home
DR11 0.00 dB -13.39 dB 3:53 03-Songs
DR12 0.00 dB -15.32 dB 3:35 04-I Got A Name
DR10 -0.02 dB -11.84 dB 3:05 05-Keep On Singing
DR11 0.00 dB -14.34 dB 3:12 06-You And Me Against The World
DR11 0.00 dB -14.22 dB 3:06 07-Ah, My Sister
DR12 -0.09 dB -16.63 dB 3:26 08-Pretty, Pretty
DR12 0.00 dB -15.09 dB 2:44 09-Love Song For Jeffrey
DR13 0.00 dB -17.59 dB 3:54 10-Stella By Starlight
DR12 0.00 dB -14.90 dB 3:31 11-Angie Baby
DR10 0.00 dB -12.92 dB 3:06 12-Raised On Rock
DR11 0.00 dB -13.26 dB 3:41 13-I've Been Waiting You So Long
DR11 0.00 dB -14.81 dB 3:51 14-You Have Lived
DR11 0.00 dB -12.85 dB 3:21 15-I'll Be Your Audience
DR11 0.00 dB -14.02 dB 4:14 16-Emotion
DR11 0.00 dB -13.12 dB 2:47 17-Free And Easy
DR12 0.00 dB -15.85 dB 3:35 18-Loneliness
DR12 -0.13 dB -17.83 dB 2:25 19-Think I'll Write A Song
DR11 0.00 dB -13.75 dB 3:06 20-Showbiz
DR11 0.00 dB -14.44 dB 3:20 21-Angie Baby (Live) (Bonus Track)
DR12 0.00 dB -13.56 dB 2:16 22-The Entertainer (Bonus Track)
––––––––––––––––––––––––––––––––––––––––

Number of tracks: 22
Official DR value: DR11

Samplerate: 44100 Hz
Channels: 2
Bits per sample: 16
Bitrate: 909 kbps
Codec: FLAC
================================================================================

Thanks to fonetic

See also:
Helen Reddy - Ear Candy (1977) & We'll Sing In The Sunshine (1978) [2010, Remastered Reissue]
Helen Reddy - All-Time Greatest Hits (1991)

♫~Welcome To My Blog~♫

password: BlondStyle