Subcategories

Hélène Grimaud - Beethoven: Piano Concerto No.5 Emperor, Piano Sonata No.28 (2007) (Repost)

Posted By: tirexiss
Hélène Grimaud - Beethoven: Piano Concerto No.5  Emperor, Piano Sonata No.28 (2007) (Repost)

Hélène Grimaud - Beethoven: Piano Concerto No.5 Emperor, Piano Sonata No.28 (2007)
EAC | FLAC (tracks+.cue, log) | Covers Included | 59:18 | 408 MB
Genre: Classical | Label: Deutsche Grammophon | Catalog: 4777149

Hélène Grimaud's performances on this disc a coupling of Beethoven "Emperor" Piano Concerto with his Piano Sonata in A major, Op. 101 are truly fantastic. Her technique is essentially untouchable and her tone is surprisingly colorful. And, as in her previous recordings, her interpretations are outrageous. With Vladimir Jurowski and the Dresden Staatskapelle in the Concerto, Grimaud is unafraid to do whatever she wants with balance and tempos. And alone in the Sonata, she is even more audacious, bending, shaping, sculpting the music with no restraint applied except her own taste. And, while there is no guarantee that Grimaud's tastes will suit your own, you owe it to yourself to hear and judge for yourself.
One might have thought Beethoven's strongly architectural music wouldn't be susceptible to such blandishment. But Grimaud's willfulness matches the composer's own broad streak of ornery individuality, and her sensual shapes and malleable tempos do the same. Jurowski gets the Dresden Staatskapelle to follow where Grimaud leads in the Concerto, and the results in both cases are perhaps the most persuasive recording of the pianist's career. Deutsche Grammophon's sound is exceptional.

Hélène Grimaud - Beethoven: Piano Concerto No.5  Emperor, Piano Sonata No.28 (2007) (Repost)

Track List:

Piano Concerto No.5, op.73 'Emperor'
1. I. Allegro
2. II. Adagio un poco mosso - attacca:
3. III. Rondo. Allegro
Piano Sonata No.28, op.101
4. I. Allegretto, ma non troppo
5. II. Vivace alla marcia
6. III. Adagio, ma non troppo, con affetto
7. IV. Allegro

Performers:
Hélène Grimaud, piano
Staatskapelle Dresden
Vladimir Jurowski, conductor

Exact Audio Copy V0.99 prebeta 5 from 4. May 2009

Отчёт EAC об извлечении, выполненном 7. марта 2010, 22:55

Ludwig van Beethoven / Piano Concerto No.5 "Emperor", Piano Sonata No.28

Дисковод: Optiarc DVD RW AD-7203A Adapter: 4 ID: 1

Режим чтения : Достоверность
Использование точного потока : Да
Отключение кэша аудио : Да
Использование указателей C2 : Нет

Коррекция смещения при чтении : 48
Способность читать области Lead-in и Lead-out : Нет
Заполнение пропущенных сэмплов тишиной : Да
Удаление блоков с тишиной в начале и конце : Нет
При вычислениях CRC использовались нулевые сэмплы : Да
Интерфейс : Встроенный Win32-интерфейс для Win NT/2000

Выходной формат : Пользовательский кодировщик
Выбранный битрейт : 128 kBit/s
Качество : Высокий
Добавление ID3-тэга : Нет
Утилита сжатия : C:\Program Files\FLAC\flac.exe
Дополнительные параметры : -5 -V %s


TOC извлечённого CD

Трек | Старт | Длительность | Начальный сектор | Конечный сектор
––––––––––––––––––––––––––––––––––-
1 | 0:00.00 | 20:08.69 | 0 | 90668
2 | 20:08.69 | 8:04.44 | 90669 | 127012
3 | 28:13.38 | 10:07.49 | 127013 | 172586
4 | 38:21.12 | 4:10.42 | 172587 | 191378
5 | 42:31.54 | 5:58.39 | 191379 | 218267
6 | 48:30.18 | 3:20.65 | 218268 | 233332
7 | 51:51.08 | 7:27.10 | 233333 | 266867


Характеристики диапазона извлечения и сообщения об ошибках

Выбранный диапазон

Имя файла D:\EAC\Ludwig van Beethoven - Piano Concerto No.5 Emperor , Piano Sonata No.28.wav

Пиковый уровень 87.4 %
Качество диапазона 100.0 %
CRC теста EB3601F2
CRC копии EB3601F2
Копирование… OK

Ошибок не произошло


AccurateRip: сводка

Трек 1 точное извлечение (доверие 36) [790FF5D5]
Трек 2 точное извлечение (доверие 38) [27C371C5]
Трек 3 точное извлечение (доверие 39) [58CE08A7]
Трек 4 точное извлечение (доверие 39) [D7883536]
Трек 5 точное извлечение (доверие 39) [DEB46259]
Трек 6 точное извлечение (доверие 39) [FC614362]
Трек 7 точное извлечение (доверие 38) [174AFCC2]

Все треки извлечены точно

Конец отчёта

[CUETools log; Date: 12.11.2017 17:04:39; Version: 2.1.5]
[CTDB TOCID: HcvKUih1hC_.kFvBpEzCC5A6mIk-] found.
Track | CTDB Status
1 | (162/163) Accurately ripped
2 | (161/163) Accurately ripped
3 | (163/163) Accurately ripped
4 | (163/163) Accurately ripped
5 | (162/163) Accurately ripped
6 | (161/163) Accurately ripped
7 | (161/163) Accurately ripped
[AccurateRip ID: 0013d695-006f32d0-480de607] found.
Track [ CRC | V2 ] Status
01 [790ff5d5|5c422787] (080+113/195) Accurately ripped
02 [27c371c5|01f24f04] (082+113/195) Accurately ripped
03 [58ce08a7|1dbc1126] (082+112/194) Accurately ripped
04 [d7883536|e4c668b4] (083+111/194) Accurately ripped
05 [deb46259|d89eb6b9] (083+110/193) Accurately ripped
06 [fc614362|b14deed3] (081+111/192) Accurately ripped
07 [174afcc2|e3d53e55] (081+111/192) Accurately ripped

Track Peak [ CRC32 ] [W/O NULL] [ LOG ]
– 87,4 [EB3601F2] [16408D4F] CRC32
01 87,4 [58D4FE16] [97D0702D]
02 51,4 [5F1150FB] [8CF3595F]
03 81,7 [2D9452BD] [25187D3E]
04 56,3 [EC7E02F0] [31E658CF]
05 72,5 [52EDF012] [3687AB7E]
06 46,2 [9F05B3CE] [3E232304]
07 75,8 [1113AB6A] [B6B504D6]

Thanks to the Original ripper GFox!

Download: