Subcategories

Helsinki Baroque Orchestra - Johan Joachim Agrell: Orchestral Works (2010) (Repost)

Posted By: tirexiss
Helsinki Baroque Orchestra - Johan Joachim Agrell: Orchestral Works (2010) (Repost)

Helsinki Baroque Orchestra - Johan Joachim Agrell: Orchestral Works (2010)
EAC | FLAC (image+.cue, log) | Covers Included | 76:49 | 436 MB
Genre: Classical | Label: Aeolus | Catalog: AE-10047

Johan Joachim Agrell (1701-1765) was in many ways a traveller between the worlds: in Uppsala, the Swede's great talent was recognized by the Hessian envoy, which resulted in Agrell being summoned to a court near Kassel in Germany. He later went as municipal chapel-master to Nuremberg. Musically, Agrell was a brilliant Baroque composer in whose works many of the new early Classical trends were anticipated. This CD thus continues the series of AEOLUS releases that feature the orchestral music of this exciting period, a series that has already very successfully presented works by Fasch, Hertel, and Molter. The Helsinki Baroque Orchestra is a shining star of Finland's musical life. The young musicians around the harpsichordist Aapo Häkkinen appear year after year throughout Europe. Further releases on AEOLUS are in preparation.

Helsinki Baroque Orchestra - Johan Joachim Agrell: Orchestral Works (2010) (Repost)

Track List:

Johan Joachim Agrell (1701-1765)

[1]-[4] Sinfonia for Strings, Flutes & B.c. in A major
[5]-[7] Violin Concerto for Violin, Strings & B.c. in D major
[8]-[10] Double Concerto for Harpsichord, Flute, Strings & B.c. in B minor, op.4 no.2
[11]-[13] Sinfonia for Strings & B.c. in D major
[14]-[16] Oboe Concerto in B flat major
[17]-[19] Sinfonia for Strings & B.c. in E flat major

Performers:
Sirkka-Liisa Kaakinen-Pilch, violin
Pauliina Fred, flute
Jasu Moisio, oboe
Helsinki Baroque Orchestra
Aapo Häkkinen, director & harpsichord

Exact Audio Copy V1.0 beta 3 from 29. August 2011

EAC extraction logfile from 17. April 2012, 12:31

Helsinki Baroque Orchestra / Agrell - Orchestral Works

Used drive : Optiarc DVD+-RW AD-5170S Adapter: 1 ID: 2

Read mode : Secure
Utilize accurate stream : Yes
Defeat audio cache : Yes
Make use of C2 pointers : No

Read offset correction : 48
Overread into Lead-In and Lead-Out : No
Fill up missing offset samples with silence : Yes
Delete leading and trailing silent blocks : No
Null samples used in CRC calculations : Yes
Used interface : Native Win32 interface for Win NT & 2000

Used output format : User Defined Encoder
Selected bitrate : 896 kBit/s
Quality : High
Add ID3 tag : Yes
Command line compressor : C:\Program Files\Exact Audio Copy\Flac\flac.exe
Additional command line options : -V -8 %source%


TOC of the extracted CD

Track | Start | Length | Start sector | End sector
––––––––––––––––––––––––––––-
1 | 0:00.00 | 5:33.66 | 0 | 25040
2 | 5:33.66 | 3:41.50 | 25041 | 41665
3 | 9:15.41 | 3:54.28 | 41666 | 59243
4 | 13:09.69 | 1:10.25 | 59244 | 64518
5 | 14:20.19 | 5:47.31 | 64519 | 90574
6 | 20:07.50 | 4:05.30 | 90575 | 108979
7 | 24:13.05 | 4:50.01 | 108980 | 130730
8 | 29:03.06 | 6:05.38 | 130731 | 158143
9 | 35:08.44 | 7:19.29 | 158144 | 191097
10 | 42:27.73 | 5:02.34 | 191098 | 213781
11 | 47:30.32 | 4:04.71 | 213782 | 232152
12 | 51:35.28 | 3:14.22 | 232153 | 246724
13 | 54:49.50 | 1:31.53 | 246725 | 253602
14 | 56:21.28 | 3:22.55 | 253603 | 268807
15 | 59:44.08 | 4:02.25 | 268808 | 286982
16 | 63:46.33 | 2:53.35 | 286983 | 299992
17 | 66:39.68 | 3:11.64 | 299993 | 314381
18 | 69:51.57 | 4:47.14 | 314382 | 335920
19 | 74:38.71 | 2:09.12 | 335921 | 345607


Range status and errors

Selected range

Filename D:\temp\pics\Agrell - Orchestral Works\Agrell - Orchestral Works.wav

Peak level 98.3 %
Extraction speed 5.8 X
Range quality 100.0 %
Test CRC AC49BDC3
Copy CRC AC49BDC3
Copy OK

No errors occurred

End of status report

==== Log checksum 1A1071CB0ACDBD5802A92FDC646606F9374816E9B8008149CE166445D6C9F345 ====

[CUETools log; Date: 10.02.2018 21:19:18; Version: 2.1.5]
[CTDB TOCID: jLoxXOnPAeEUIFXEjQAdq3SACtE-] found.
Track | CTDB Status
1 | (9/9) Accurately ripped
2 | (9/9) Accurately ripped
3 | (9/9) Accurately ripped
4 | (9/9) Accurately ripped
5 | (9/9) Accurately ripped
6 | (9/9) Accurately ripped
7 | (9/9) Accurately ripped
8 | (9/9) Accurately ripped
9 | (9/9) Accurately ripped
10 | (9/9) Accurately ripped
11 | (9/9) Accurately ripped
12 | (9/9) Accurately ripped
13 | (9/9) Accurately ripped
14 | (9/9) Accurately ripped
15 | (9/9) Accurately ripped
16 | (9/9) Accurately ripped
17 | (9/9) Accurately ripped
18 | (9/9) Accurately ripped
19 | (9/9) Accurately ripped
[AccurateRip ID: 0037f7f4-030a19f7-19120013] found.
Track [ CRC | V2 ] Status
01 [808feaee|15211316] (3+4/7) Accurately ripped
02 [a03a28e8|4b0894ad] (3+4/7) Accurately ripped
03 [630ef291|5f697cd3] (3+4/7) Accurately ripped
04 [29c9f611|ce4e05f6] (3+4/7) Accurately ripped
05 [2a34f4e7|24b238ad] (3+4/7) Accurately ripped
06 [c2ba0e19|33c071b9] (2+3/5) Accurately ripped
07 [415fb97d|c0f1237b] (2+3/5) Accurately ripped
08 [37f0c03c|4d933c27] (3+4/7) Accurately ripped
09 [5aabb6f1|016d77ec] (3+4/7) Accurately ripped
10 [a156f942|157835b1] (3+4/7) Accurately ripped
11 [45af9126|cfeaeddc] (3+4/7) Accurately ripped
12 [696eab0d|d8843726] (3+4/7) Accurately ripped
13 [d87a77ff|38e75ce5] (3+4/7) Accurately ripped
14 [028b5645|890a51ef] (3+4/7) Accurately ripped
15 [7b1c736e|72f44976] (3+4/7) Accurately ripped
16 [96b2b2af|a31743a1] (3+4/7) Accurately ripped
17 [81244eae|738f3781] (2+3/5) Accurately ripped
18 [28942bf3|caee5d34] (2+4/6) Accurately ripped
19 [ee9e1a3c|b20e1e4e] (3+4/7) Accurately ripped

Track Peak [ CRC32 ] [W/O NULL] [ LOG ]
– 98,3 [AC49BDC3] [F0A4048C] CRC32
01 83,4 [F069670D] [54AE87DF]
02 45,3 [8CA85194] [B816CE9A]
03 51,2 [FD43F28F] [11BF433D]
04 81,3 [312E38BA] [A5DFE68E]
05 81,6 [ACDDB323] [BB1C66CF]
06 58,8 [A8A6E018] [C285AA15]
07 69,8 [F83E51F0] [1DB5C2C8]
08 78,2 [070253ED] [465271EC]
09 46,5 [67DBA4A6] [E94AE9EE]
10 51,8 [A3999BDF] [05C9BCEA]
11 56,5 [8E581FD0] [9BBD578F]
12 59,4 [9CE5CED1] [9B9D3776]
13 69,4 [E624E30A] [BC351B5E]
14 63,9 [9396D8BA] [B2D5B639]
15 37,4 [20272636] [52A9A1FF]
16 52,3 [938E6D64] [F0A7470E]
17 83,5 [E5939616] [05CDC993]
18 66,3 [1AEEAFE0] [12E80668]
19 98,3 [F4BB8AE3] [D5D11ACB]

Thanks to the Original ripper A-Z!

Download: