Subcategories

Henry Kaiser, Damon Smith, Weasel Walter - Plane Crash Two (2015)

Posted By: v3122
Henry Kaiser, Damon Smith, Weasel Walter - Plane Crash Two (2015)

Henry Kaiser, Damon Smith, Weasel Walter - Plane Crash Two (2015)
EAC | Flac(Image) + Cue + Log & MP3 CBR 320Kbps
New Atlantis Records, NA-CD-024 | ~ 426 or 158 Mb | Scans(png) -> 55 Mb
Avant-Garde Jazz / Free Improvisation

This album was created shortly after experimental guitarist Henry Kaiser's large ensemble collaboration with fabled Brit guitarist Ray Russell The Celestial Squid (Cuneiform, 2015), as Plane Crash Two marks the second installment of the trio's unadulterated free improvisation exploits. Here, three longtime associates generate that special synergy required to pull it off. Regardless of tempo or pitch, the musicians expand, contract and generate call and response patterns via microsecond-like reactions amid the ensuing developments.

The program is consummated by four 10-minute plus workouts. On the humorously titled opener "Cactus Makes Perfect," drummer Weasel Walter's stimulating, hyper-mode cymbals, drums and small percussion instrument fabrications tender a bulbous platform, contrasted by bassist Damon Smith's rugged arco-lines and limber bottom-end. Moreover, they gel to a cavalcade of jagged phrasings and flex some muscle, offset by a few quiet interludes. But when performing on electric guitar, Kaiser's off-centered choruses complete with phased, reverse-engineering effects and eerie tonalities present a bizarre outlook as the band also ventures toward subterranean depths and volcanic zeniths. They delve into asymmetrically oriented avant-metal wonderlands and on "False Alarms," Kaiser's volume control techniques and Walter's peppery snare drum rolls offer a fractured stream of consciousness with edgy dialogues.

The trio pulls out the proverbial stops with all out blitzes and frenzied soloing galas akin to a lethal aerial assault; although, "Fifi Blows Her Top" features the guitarist's nimble plucking and Smith's mournful bowed-lines and other contrapuntal schemas. In sum, the group's simmering narratives, animated exchanges and free-spirited risk-taking mechanisms spawn an indubitably intense joyride.

By GLENN ASTARITA, allaboutjazz.com
Henry Kaiser, Damon Smith, Weasel Walter - Plane Crash Two (2015):

Henry Kaiser, Damon Smith, Weasel Walter - Plane Crash Two (2015)

Tracklist:

1 Cactus Makes Perfect 15:26
2 False Alarms 21:29
3 Violent Is The Word For Curly 16:23
4 Fifi Blows Her Top 13:30

Musicians:

Double Bass – Damon Smith
Drum Kit – Weasel Walter
Guitar – Henry Kaiser


Exact Audio Copy V1.0 beta 6 from 9. April 2015

EAC extraction logfile from 10. September 2015, 20:57

Henry Kaiser - Damon Smith - Weasel Walter / Plane Crash Two

Used drive : TSSTcorpCDDVDW SH-S223C Adapter: 1 ID: 0

Read mode : Secure
Utilize accurate stream : Yes
Defeat audio cache : Yes
Make use of C2 pointers : No

Read offset correction : 697
Overread into Lead-In and Lead-Out : No
Fill up missing offset samples with silence : Yes
Delete leading and trailing silent blocks : No
Null samples used in CRC calculations : Yes
Used interface : Native Win32 interface for Win NT & 2000

Used output format : User Defined Encoder
Selected bitrate : 128 kBit/s
Quality : High
Add ID3 tag : No
Command line compressor : C:\Program Files (x86)\Exact Audio Copy\wavpack\wavpack.exe
Additional command line options : -hm -w "Year=%year%" -w "Genre=%genre%" %source% %dest%


TOC of the extracted CD

Track | Start | Length | Start sector | End sector
––––––––––––––––––––––––––––-
1 | 0:00.00 | 15:26.66 | 0 | 69515
2 | 15:26.66 | 21:29.69 | 69516 | 166259
3 | 36:56.60 | 16:23.43 | 166260 | 240027
4 | 53:20.28 | 13:30.30 | 240028 | 300807


Range status and errors

Selected range

Filename D:\_NL+_\_CD\Henry Kaiser - Damon Smith - Weasel Walter - Plane Crash Two.wav

Peak level 94.2 %
Extraction speed 4.9 X
Range quality 100.0 %
Test CRC D150A14A
Copy CRC D150A14A
Copy OK

No errors occurred


AccurateRip summary

Track 1 not present in database
Track 2 not present in database
Track 3 not present in database
Track 4 not present in database

None of the tracks are present in the AccurateRip database

End of status report

–– CUETools DB Plugin V2.1.6

[CTDB TOCID: l5liDNzi3c7n4yBc48arm4wlUsY-] disk not present in database
Submit result: l5liDNzi3c7n4yBc48arm4wlUsY- has been uploaded


==== Log checksum 39BA60809B28DE603F9A42550F4A0A8CFB6DC2F2A64F84A196F1A07CF3FED079 ====

foobar2000 1.2.9 / Dynamic Range Meter 1.1.1
log date: 2016-01-12 08:56:29

––––––––––––––––––––––––––––––––––––––––
Analyzed: Henry Kaiser/Damon Smith/Weasel Walter / Plane Crash Two
––––––––––––––––––––––––––––––––––––––––

DR Peak RMS Duration Track
––––––––––––––––––––––––––––––––––––––––
DR10 -0.52 dB -14.80 dB 15:27 01-Cactus Makes Perfect
DR8 -0.62 dB -12.43 dB 21:30 02-False Alarms
DR8 -0.64 dB -10.90 dB 16:24 03-Violent Is The Word For Curly
DR11 -1.15 dB -14.63 dB 13:30 04-Fifi Blows Her Top
––––––––––––––––––––––––––––––––––––––––

Number of tracks: 4
Official DR value: DR9

Samplerate: 44100 Hz
Channels: 2
Bits per sample: 16
Bitrate: 864 kbps
Codec: FLAC

[CUETools log; Date: 12.01.2016 8:56:17; Version: 2.1.4]
[CTDB TOCID: l5liDNzi3c7n4yBc48arm4wlUsY-] found.
Track | CTDB Status
1 | (1/1) Accurately ripped
2 | (1/1) Accurately ripped
3 | (1/1) Accurately ripped
4 | (1/1) Accurately ripped
[AccurateRip ID: 000bd9a4-002f550d-290faa04] disk not present in database.

Track Peak [ CRC32 ] [W/O NULL] [ LOG ]
– 94,2 [D150A14A] [18E9F65C] CRC32
01 94,2 [EC75CCC9] [9587CD71]
02 93,1 [EBAF5882] [C80BE91E]
03 92,9 [B6B1330C] [AF8C2433]
04 87,6 [A383098A] [8B93D65F]

Henry Kaiser, Damon Smith, Weasel Walter - Plane Crash Two (2015)

All thanks go to tatuk

Download Henry Kaiser, Damon Smith, Weasel Walter - Plane Crash Two (2015):