Subcategories

Henry "Red" Allen And His Orchestra - 1929-1933 (1990)

Posted By: gribovar
Henry "Red" Allen And His Orchestra - 1929-1933 (1990)

Henry "Red" Allen And His Orchestra - 1929-1933 (1990)
EAC Rip | FLAC (tracks+.cue+log) - 321 MB | MP3 CBR 320 kbps (LAME 3.93) - 175 MB | Covers (6 MB) included
Genre: Jazz, Dixieland | RAR 3% Rec. | Label: Classics Records (CLASSICS 540)

The first of a five-volume CD series released by the European Classics label that reissues all of the recordings led by trumpeter Red Allen during 1929-41 is one of the best. The great trumpeter is first heard fronting the Luis Russell Orchestra for such classics as "It Should Be You" and "Biff'ly Blues," he interacts with blues singer Victoria Spivey, and on the selections from 1933 (two of which were previously unreleased) he co-leads a group with tenor-saxophonist Coleman Hawkins. Not all of the performances are gems but there are many memorable selections including "How Do They Do It That Way," "Pleasin' Paul," "Sugar Hill Function,," and "Patrol Wagon Blues." Other soloists include trombonists J.C. Higginbottham and Dicky Wells, clarinetist Albert Nicholas and altoist Charlie Holmes.
Tracklist:
01. It Should Be You
02. Biff'ly Blues
03. Feeling Drowsy
04. Swing Out
05. Make A Country Bird Fly Wild
06. Funny Feathers Blues
07. How Do They Do It That Way?
08. Pleasin' Paul
09. Sugar Hill Function
10. You Might Get Better, But You'll Never Get Well
11. Everybody Shout
12. Dancing Dave
13. Roamin'
14. Singing Pretty Songs
15. Patrol Wagon Blues
16. I Fell In Love With You
17. Someday, Sweetheart
18. I Wish I Could Shimmy Like My Sister Kate
19. The River's Takin' Care Of Me
20. Ain'tcha Got Music?
21. Stringin' Along On A Shoe String
22. Shadows On The Swanee
23. Hush My Mouth (If It Ain't Goin' South)

Total time: 01:11:35

Exact Audio Copy V0.99 prebeta 3 from 28. July 2007

EAC extraction logfile from 29. December 2007, 23:32

Henry "Red" Allen / 1929-1933

Used drive : TSSTcorpDVD+-RW TS-H553A Adapter: 0 ID: 2

Read mode : Secure
Utilize accurate stream : Yes
Defeat audio cache : Yes
Make use of C2 pointers : No

Read offset correction : 6
Overread into Lead-In and Lead-Out : No
Fill up missing offset samples with silence : Yes
Delete leading and trailing silent blocks : No
Null samples used in CRC calculations : Yes
Used interface : Native Win32 interface for Win NT & 2000
Gap handling : Appended to previous track

Used output format : User Defined Encoder
Selected bitrate : 768 kBit/s
Quality : High
Add ID3 tag : No
Command line compressor : C:\Program Files\Exact Audio Copy\FLAC\FLAC.EXE
Additional command line options : -6 -V -T "ARTIST=%a" -T "TITLE=%t" -T "ALBUM=%g" -T "DATE=%y" -T "TRACKNUMBER=%n" -T "GENRE=%m" -T "COMMENT=%e" %s -o %d


TOC of the extracted CD

Track | Start | Length | Start sector | End sector
––––––––––––––––––––––––––––-
1 | 0:00.33 | 3:10.00 | 33 | 14282
2 | 3:10.33 | 3:26.12 | 14283 | 29744
3 | 6:36.45 | 3:36.73 | 29745 | 46017
4 | 10:13.43 | 3:17.60 | 46018 | 60852
5 | 13:31.28 | 3:26.55 | 60853 | 76357
6 | 16:58.08 | 2:58.30 | 76358 | 89737
7 | 19:56.38 | 3:19.65 | 89738 | 104727
8 | 23:16.28 | 2:54.15 | 104728 | 117792
9 | 26:10.43 | 3:03.10 | 117793 | 131527
10 | 29:13.53 | 3:07.35 | 131528 | 145587
11 | 32:21.13 | 2:27.42 | 145588 | 156654
12 | 34:48.55 | 3:11.60 | 156655 | 171039
13 | 38:00.40 | 3:39.15 | 171040 | 187479
14 | 41:39.55 | 3:19.58 | 187480 | 202462
15 | 44:59.38 | 3:22.02 | 202463 | 217614
16 | 48:21.40 | 3:30.28 | 217615 | 233392
17 | 51:51.68 | 2:57.37 | 233393 | 246704
18 | 54:49.30 | 2:44.53 | 246705 | 259057
19 | 57:34.08 | 2:40.05 | 259058 | 271062
20 | 60:14.13 | 2:48.30 | 271063 | 283692
21 | 63:02.43 | 2:47.37 | 283693 | 296254
22 | 65:50.05 | 2:44.10 | 296255 | 308564
23 | 68:34.15 | 3:01.18 | 308565 | 322157


Track 1

Filename K:\New Rips\Henry 'Red' Allen - 1929-1933 (1990) [FLAC]\01 - It Should Be You.wav

Pre-gap length 0:00:02.44

Peak level 79.9 %
Track quality 100.0 %
Test CRC A11A336A
Copy CRC A11A336A
Track not present in AccurateRip database
Copy OK

Track 2

Filename K:\New Rips\Henry 'Red' Allen - 1929-1933 (1990) [FLAC]\02 - Biff'ly Blues.wav

Pre-gap length 0:00:02.20

Peak level 76.3 %
Track quality 100.0 %
Test CRC 56151163
Copy CRC 56151163
Track not present in AccurateRip database
Copy OK

Track 3

Filename K:\New Rips\Henry 'Red' Allen - 1929-1933 (1990) [FLAC]\03 - Feeling Drowsy.wav

Pre-gap length 0:00:02.82

Peak level 91.2 %
Track quality 100.0 %
Test CRC 2FCF979E
Copy CRC 2FCF979E
Track not present in AccurateRip database
Copy OK

Track 4

Filename K:\New Rips\Henry 'Red' Allen - 1929-1933 (1990) [FLAC]\04 - Swing Out.wav

Pre-gap length 0:00:03.30

Peak level 93.3 %
Track quality 100.0 %
Test CRC 7C04FE3E
Copy CRC 7C04FE3E
Track not present in AccurateRip database
Copy OK

Track 5

Filename K:\New Rips\Henry 'Red' Allen - 1929-1933 (1990) [FLAC]\05 - Make A Country Bird Fly Wild.wav

Pre-gap length 0:00:02.44

Peak level 85.3 %
Track quality 100.0 %
Test CRC 4856E075
Copy CRC 4856E075
Track not present in AccurateRip database
Copy OK

Track 6

Filename K:\New Rips\Henry 'Red' Allen - 1929-1933 (1990) [FLAC]\06 - Funny Feathers Blues.wav

Pre-gap length 0:00:02.10

Peak level 79.2 %
Track quality 100.0 %
Test CRC 0A20851A
Copy CRC 0A20851A
Track not present in AccurateRip database
Copy OK

Track 7

Filename K:\New Rips\Henry 'Red' Allen - 1929-1933 (1990) [FLAC]\07 - How Do They Do It That Way .wav

Pre-gap length 0:00:01.93

Peak level 80.1 %
Track quality 100.0 %
Test CRC 73B759AD
Copy CRC 73B759AD
Track not present in AccurateRip database
Copy OK

Track 8

Filename K:\New Rips\Henry 'Red' Allen - 1929-1933 (1990) [FLAC]\08 - Pleasin' Paul.wav

Pre-gap length 0:00:01.80

Peak level 88.4 %
Track quality 100.0 %
Test CRC 0191AE23
Copy CRC 0191AE23
Track not present in AccurateRip database
Copy OK

Track 9

Filename K:\New Rips\Henry 'Red' Allen - 1929-1933 (1990) [FLAC]\09 - Sugar Hill Function.wav

Pre-gap length 0:00:01.80

Peak level 78.0 %
Track quality 100.0 %
Test CRC 267F22AA
Copy CRC 267F22AA
Track not present in AccurateRip database
Copy OK

Track 10

Filename K:\New Rips\Henry 'Red' Allen - 1929-1933 (1990) [FLAC]\10 - You Might Get Better, But You'll Never Get Well.wav

Pre-gap length 0:00:02.10

Peak level 85.8 %
Track quality 99.9 %
Test CRC BAEC4C56
Copy CRC BAEC4C56
Track not present in AccurateRip database
Copy OK

Track 11

Filename K:\New Rips\Henry 'Red' Allen - 1929-1933 (1990) [FLAC]\11 - Everybody Shout.wav

Pre-gap length 0:00:02.97

Peak level 82.6 %
Track quality 100.0 %
Test CRC EF0F2355
Copy CRC EF0F2355
Track not present in AccurateRip database
Copy OK

Track 12

Filename K:\New Rips\Henry 'Red' Allen - 1929-1933 (1990) [FLAC]\12 - Dancing Dave.wav

Pre-gap length 0:00:03.02

Peak level 77.4 %
Track quality 100.0 %
Test CRC 1146F0DF
Copy CRC 1146F0DF
Track not present in AccurateRip database
Copy OK

Track 13

Filename K:\New Rips\Henry 'Red' Allen - 1929-1933 (1990) [FLAC]\13 - Roamin'.wav

Pre-gap length 0:00:02.60

Peak level 80.2 %
Track quality 100.0 %
Test CRC 73EBBD3B
Copy CRC 73EBBD3B
Track not present in AccurateRip database
Copy OK

Track 14

Filename K:\New Rips\Henry 'Red' Allen - 1929-1933 (1990) [FLAC]\14 - Swinging Pretty Songs.wav

Pre-gap length 0:00:02.66

Peak level 90.1 %
Track quality 100.0 %
Test CRC 881827DF
Copy CRC 881827DF
Track not present in AccurateRip database
Copy OK

Track 15

Filename K:\New Rips\Henry 'Red' Allen - 1929-1933 (1990) [FLAC]\15 - Patrol Wagon Blues.wav

Pre-gap length 0:00:02.20

Peak level 85.1 %
Track quality 100.0 %
Test CRC 781AE8E3
Copy CRC 781AE8E3
Track not present in AccurateRip database
Copy OK

Track 16

Filename K:\New Rips\Henry 'Red' Allen - 1929-1933 (1990) [FLAC]\16 - I Fell In Love With You.wav

Pre-gap length 0:00:02.93

Peak level 80.4 %
Track quality 100.0 %
Test CRC 98A1AB99
Copy CRC 98A1AB99
Track not present in AccurateRip database
Copy OK

Track 17

Filename K:\New Rips\Henry 'Red' Allen - 1929-1933 (1990) [FLAC]\17 - Someday, Sweetheart.wav

Pre-gap length 0:00:03.04

Peak level 69.7 %
Track quality 100.0 %
Test CRC 65845B0B
Copy CRC 65845B0B
Track not present in AccurateRip database
Copy OK

Track 18

Filename K:\New Rips\Henry 'Red' Allen - 1929-1933 (1990) [FLAC]\18 - I Wish I Could Shimmy Like My Sister Kate.wav

Pre-gap length 0:00:03.09

Peak level 77.3 %
Track quality 99.9 %
Test CRC 1126079D
Copy CRC 1126079D
Track not present in AccurateRip database
Copy OK

Track 19

Filename K:\New Rips\Henry 'Red' Allen - 1929-1933 (1990) [FLAC]\19 - The River's Takin' Care Of Me.wav

Pre-gap length 0:00:02.50

Peak level 89.5 %
Track quality 99.9 %
Test CRC 61E18772
Copy CRC 61E18772
Track not present in AccurateRip database
Copy OK

Track 20

Filename K:\New Rips\Henry 'Red' Allen - 1929-1933 (1990) [FLAC]\20 - Ain'tcha Got Music .wav

Pre-gap length 0:00:02.44

Peak level 93.2 %
Track quality 100.0 %
Test CRC D0D2C105
Copy CRC D0D2C105
Track not present in AccurateRip database
Copy OK

Track 21

Filename K:\New Rips\Henry 'Red' Allen - 1929-1933 (1990) [FLAC]\21 - Stringin' Along On A Shoe String.wav

Pre-gap length 0:00:02.53

Peak level 82.5 %
Track quality 100.0 %
Test CRC B5134192
Copy CRC B5134192
Track not present in AccurateRip database
Copy OK

Track 22

Filename K:\New Rips\Henry 'Red' Allen - 1929-1933 (1990) [FLAC]\22 - Shadows On The Swanee.wav

Pre-gap length 0:00:02.29

Peak level 88.0 %
Track quality 100.0 %
Test CRC 8E4589DB
Copy CRC 8E4589DB
Track not present in AccurateRip database
Copy OK

Track 23

Filename K:\New Rips\Henry 'Red' Allen - 1929-1933 (1990) [FLAC]\23 - Hush My Mouth (If It Ain't Goin' South).wav

Pre-gap length 0:00:02.22

Peak level 87.0 %
Track quality 100.0 %
Test CRC E92499B1
Copy CRC E92499B1
Track not present in AccurateRip database
Copy OK


None of the tracks are present in the AccurateRip database

No errors occurred

End of status report

[CUETools log; Date: 30.03.2018 22:12:45; Version: 2.1.4]
Pregap length 00:00:33.
[CTDB TOCID: sUy1qbkQc3LsY.E6pv2z9tcVbHA-] found.
Track | CTDB Status
1 | (5/5) Accurately ripped
2 | (5/5) Accurately ripped
3 | (5/5) Accurately ripped
4 | (5/5) Accurately ripped
5 | (5/5) Accurately ripped
6 | (5/5) Accurately ripped
7 | (5/5) Accurately ripped
8 | (5/5) Accurately ripped
9 | (5/5) Accurately ripped
10 | (5/5) Accurately ripped
11 | (5/5) Accurately ripped
12 | (5/5) Accurately ripped
13 | (5/5) Accurately ripped
14 | (5/5) Accurately ripped
15 | (5/5) Accurately ripped
16 | (5/5) Accurately ripped
17 | (5/5) Accurately ripped
18 | (5/5) Accurately ripped
19 | (5/5) Accurately ripped
20 | (5/5) Accurately ripped
21 | (5/5) Accurately ripped
22 | (5/5) Accurately ripped
23 | (5/5) Accurately ripped
[AccurateRip ID: 003c9ec8-03ec2d62-3f10c717] found.
Track [ CRC | V2 ] Status
01 [7c4ffc7d|250fe2f4] (0+4/4) Accurately ripped
02 [25644f21|e3d8f3b8] (0+4/4) Accurately ripped
03 [846f333a|272121e7] (0+4/4) Accurately ripped
04 [e2ec64e0|9ead0b80] (0+4/4) Accurately ripped
05 [8e5c46d1|b6306f19] (0+4/4) Accurately ripped
06 [ea3af375|0c70c71c] (0+4/4) Accurately ripped
07 [b9b206c6|8f01d985] (0+4/4) Accurately ripped
08 [4d4a73f4|ab81beeb] (0+4/4) Accurately ripped
09 [260b4b5e|979e42b9] (0+3/3) Accurately ripped
10 [cf9339e9|88f402d3] (0+4/4) Accurately ripped
11 [3eb81d75|0edfa976] (0+4/4) Accurately ripped
12 [dacc0223|2d96e9ea] (0+4/4) Accurately ripped
13 [82e95e6c|7a171be9] (0+4/4) Accurately ripped
14 [efb51bff|27ae6539] (0+4/4) Accurately ripped
15 [99c874d3|bc8d4e82] (0+4/4) Accurately ripped
16 [5eeaadda|d1a93515] (0+4/4) Accurately ripped
17 [734983a6|a10f0ac5] (0+4/4) Accurately ripped
18 [aa62861b|2d2605c4] (0+4/4) Accurately ripped
19 [31e5b5d3|7bf08369] (0+4/4) Accurately ripped
20 [f97614d8|96bb3faa] (0+4/4) Accurately ripped
21 [e678ccee|60ced20c] (0+4/4) Accurately ripped
22 [356197f5|91279812] (0+4/4) Accurately ripped
23 [5f07006b|8fa63d8f] (0+4/4) Accurately ripped

Track Peak [ CRC32 ] [W/O NULL] [ LOG ]
– 93,3 [756DBCA1] [F6DD834E]
01 79,9 [A11A336A] [A078BB34] CRC32
02 76,3 [56151163] [818FA830] CRC32
03 91,2 [2FCF979E] [7D979297] CRC32
04 93,3 [7C04FE3E] [E7DF3E4E] CRC32
05 85,3 [4856E075] [9D534763] CRC32
06 79,2 [0A20851A] [026B9E43] CRC32
07 80,1 [73B759AD] [3B1DA0B7] CRC32
08 88,4 [0191AE23] [3D12D4BC] CRC32
09 78,0 [267F22AA] [BAD27CCD] CRC32
10 85,8 [BAEC4C56] [AD828799] CRC32
11 82,6 [EF0F2355] [8E0FB646] CRC32
12 77,4 [1146F0DF] [62665318] CRC32
13 80,2 [73EBBD3B] [F4D9D84A] CRC32
14 90,1 [881827DF] [8C0FB328] CRC32
15 85,1 [781AE8E3] [16B654E4] CRC32
16 80,4 [98A1AB99] [164F21A2] CRC32
17 69,7 [65845B0B] [9235B8B4] CRC32
18 77,2 [1126079D] [E6E79FF4] CRC32
19 89,5 [61E18772] [C8310538] CRC32
20 93,2 [D0D2C105] [E52B7C6E] CRC32
21 82,5 [B5134192] [7F500A1E] CRC32
22 88,0 [8E4589DB] [EB18B848] CRC32
23 87,0 [E92499B1] [D88CD73A] CRC32

Thanks to yowlz