Subcategories

Herbie Hancock - Lite Me Up (1982)

Posted By: v3122
Herbie Hancock - Lite Me Up (1982)

Herbie Hancock - Lite Me Up (1982)
EAC | Flac(Image) + Cue + Log & MP3 CBR 320Kbps
2004 | Columbia Sony Music Entertainment, 486573 2 | ~ 255 or 92 Mb | Scans(png) -> 36 Mb
Funk, Rhythm & Blues, Soul

By 1978, Hancock had another identity as a dance/fusion attraction with the albums Feets Don't Fail Me Now and Sunlight. Lite Me Up is an even more concerted effort to fuse jazz with pop. Hancock handled all of the production chores on all but two of the eight tracks. His main arranger and lyricist here is Rod Temperton, the former Heatwave member who worked with Quincy Jones on albums Off the Wall and Light Up the Night. The title track and "The Bomb" are glossy, propulsive offerings reminiscent of prime Jones without his skill at making it all stick. The biggest hit here, the sleek "Getting' to the Good Part" adheres to the Steely Dan's Gaucho style, has a gorgeous bridge, and has Hancock doing his loved or hated vocoder lead vocals. From a jazz perspective, there is precious little of it on Lite Me Up. In fact, the songs "The Fun Tracks" and the humorous "Motor Mouth" sound like Heatwave retreads. The last song stands out, however. The beautiful, hooky ballad "Give It All Your Heart" features both Hancock and Patrice Rushen both doing their vocal leads on vocoder. The track perfectly captures both prime Temperton and Hancock's '78-'82 fusion ballad style. Songs with producers Jay Graydon and Narada Michael Walden both feature the artist doing vocals without the gadgetry, and, believe it or not, the vocoder is more definitive. Despite the better tracks, Lite Me Up doesn't have the adventurous nature of Hancock's jazz/pop of the era.

by Jason Elias, allmusic
Herbie Hancock - Lite Me Up (1982):

Herbie Hancock - Lite Me Up (1982)

Tracklist:

01. Lite Me Up! [3:41]
02. The Bomb [3:59]
03. Gettin’ to the Good Part [6:13]
04. Paradise [4:29]
05. Can’t Hide Your Love [3:55]
06. The Fun Tracks [4:04]
07. Motor Mouth [3:59]
08. Give it All Your Heart [7:41]

Exact Audio Copy V1.3 from 2. September 2016

EAC extraction logfile from 24. November 2017, 21:55

HERBIE HANCOCK / «Lite Me Up» (France, Columbia, COL 486573 2)

Used drive : ASUS DRW-24B3ST Adapter: 1 ID: 2

Read mode : Secure
Utilize accurate stream : Yes
Defeat audio cache : Yes
Make use of C2 pointers : No

Read offset correction : 6
Overread into Lead-In and Lead-Out : No
Fill up missing offset samples with silence : Yes
Delete leading and trailing silent blocks : No
Null samples used in CRC calculations : Yes
Used interface : Native Win32 interface for Win NT & 2000

Used output format : User Defined Encoder
Selected bitrate : 1024 kBit/s
Quality : High
Add ID3 tag : No
Command line compressor : C:\Program Files\EAC(v.1.3)\WV\wavpack.exe
Additional command line options : -h -hh -m %source%


TOC of the extracted CD

Track | Start | Length | Start sector | End sector
––––––––––––––––––––––––––––-
1 | 0:00.00 | 3:41.17 | 0 | 16591
2 | 3:41.17 | 3:58.40 | 16592 | 34481
3 | 7:39.57 | 6:13.05 | 34482 | 62461
4 | 13:52.62 | 4:29.25 | 62462 | 82661
5 | 18:22.12 | 3:54.65 | 82662 | 100276
6 | 22:17.02 | 4:03.55 | 100277 | 118556
7 | 26:20.57 | 3:58.58 | 118557 | 136464
8 | 30:19.40 | 7:40.45 | 136465 | 171009


Range status and errors

Selected range

Filename F:\HERBIE HANCOCK «Lite Me Up» (1982) (FR 2004 Columbia Sony Music Entertainment • COL 486573 2)\HERBIE HANCOCK «Lite Me Up» (France, Columbia, COL 486573 2).wav

Peak level 100.0 %
Extraction speed 7.1 X
Range quality 100.0 %
Test CRC 79A86F66
Copy CRC 79A86F66
Copy OK

No errors occurred


AccurateRip summary

Track 1 accurately ripped (confidence 10) [719CB0E7] (AR v2)
Track 2 accurately ripped (confidence 10) [9813FEEF] (AR v2)
Track 3 accurately ripped (confidence 10) [8D35452E] (AR v2)
Track 4 accurately ripped (confidence 10) [B5A4FEE4] (AR v2)
Track 5 accurately ripped (confidence 10) [B099C69C] (AR v2)
Track 6 accurately ripped (confidence 10) [686E2AF5] (AR v2)
Track 7 accurately ripped (confidence 10) [8FB7EE31] (AR v2)
Track 8 accurately ripped (confidence 10) [34691102] (AR v2)

All tracks accurately ripped

End of status report

==== Log checksum 86440479CBBB1B78E004F9BD8BF61BCC6781C0D86A5A81A5C4DB928FF2522B9B ====


[CUETools log; Date: 16.12.2017 2:18:08; Version: 2.1.5]
[AccurateRip ID: 000b064b-004a30d0-5508e808] found.
Track [ CRC | V2 ] Status
01 [8ff53608|719cb0e7] (00+10/14) Accurately ripped
02 [8838d07a|9813feef] (00+10/14) Accurately ripped
03 [bff747b4|8d35452e] (00+10/14) Accurately ripped
04 [d7b158b1|b5a4fee4] (00+10/14) Accurately ripped
05 [197771d7|b099c69c] (00+10/14) Accurately ripped
06 [25d4fe47|686e2af5] (00+10/14) Accurately ripped
07 [d2632540|8fb7ee31] (00+10/14) Accurately ripped
08 [71866a80|34691102] (00+10/14) Accurately ripped
Offsetted by -681:
01 [f474df2c] (02/14) Accurately ripped
02 [7889cb4f] (02/14) Accurately ripped
03 [7bbf7537] (02/14) Accurately ripped
04 [7bdecfe2] (02/14) Accurately ripped
05 [0fb548f0] (02/14) Accurately ripped
06 [428646e5] (02/14) Accurately ripped
07 [c27f318a] (02/14) Accurately ripped
08 [7256154f] (02/14) Accurately ripped
Offsetted by 1683:
01 [64b26930] (02/14) Accurately ripped
02 [fe68d4fc] (02/14) Accurately ripped
03 [e61247cf] (02/14) Accurately ripped
04 [2b62114d] (02/14) Accurately ripped
05 [5a2eaf74] (02/14) Accurately ripped
06 [04235f1d] (02/14) Accurately ripped
07 [f76721f2] (02/14) Accurately ripped
08 [927b0b6b] (02/14) Accurately ripped

Track Peak [ CRC32 ] [W/O NULL] [ LOG ]
– 100,0 [79A86F66] [692E234E] CRC32
01 100,0 [AEEFC3BE] [FF744B22]
02 100,0 [C2E6BD1E] [0719B351]
03 100,0 [D47DCF1A] [644F49F2]
04 75,3 [E0EB2D52] [59BE96F7]
05 94,3 [27344ACB] [24C7A4DC]
06 99,9 [C91812CF] [F7220866]
07 100,0 [207ABC05] [EDF874CF]
08 92,0 [77B9F3CD] [1D40A405]


Herbie Hancock - Lite Me Up (1982)

All thanks go to the original releaser

Herbie Hancock or Herbie Hancock in my Blog

Download Herbie Hancock - Lite Me Up (1982):