Subcategories

Hilton Ruiz - Live at Birdland (1993)

Posted By: PCWhizzkid
Hilton Ruiz - Live at Birdland (1993)

Hilton Ruiz - Live at Birdland (1993)
EAC V1.0 beta 1 | FLAC ( Secure Mode ) Image + Cue + Log - 394 MB
FULL SCANS - 16 MB (600dpi) | Recovery Record + 3%
Genre: Jazz | Label: Candid | Catalogue No: CCD 79532
Wupload & Filesonic

Hilton Ruiz, whose life ended in tragic circumstances in New Orleans in 2006 was a hugely talented and popular artist. From his solo work to the now legendary duets with the late Major Holley, Rahsaan Roland Kirk, Tito Puente, Symphony orchestras, and the various aggregations of his own, Hilton was a master of many styles. When it came to caressing the ivories, Ruiz had the class of Erroll Garner and Noro Morales with the sophistication of Duke Ellington and Ernesto Lecuona all wrapped up into one. You'll hear these elements and more when listening to this album including the explosive rhythm section of Andy Gonzalez on bass, Steve Berrios on drums, Giovanni Hidalgo on congas and percussion, and tenor saxophonists David Sanchez and Peter Brainin.


Personnel:

Hilton Ruiz (piano), David Sanchez, Peter Brainin (tenor saxophone), Andy Gonzalez (bass), Steve Berrios (drums), Giovanni Hidalgo (percussion).


TRACK LIST:

1. Something grand
2. New arrival
3. Blues for two tenors
4. Mr. Kenyatta
5. Lisa
6. A night in Tunisia
7. I'll call you later
8. On green dolphin street
9. Footprints

Recording Time 64 minutes


Exact Audio Copy V1.0 beta 1 from 15. November 2010

EAC extraction logfile from 21. June 2011, 13:43

Hilton Ruiz / Live at Birdland

Used drive : HL-DT-STDVDRAM GH22NS40 Adapter: 5 ID: 0

Read mode : Secure
Utilize accurate stream : Yes
Defeat audio cache : Yes
Make use of C2 pointers : No

Read offset correction : 667
Overread into Lead-In and Lead-Out : No
Fill up missing offset samples with silence : Yes
Delete leading and trailing silent blocks : No
Null samples used in CRC calculations : Yes
Used interface : Native Win32 interface for Win NT & 2000

Used output format : User Defined Encoder
Selected bitrate : 1024 kBit/s
Quality : High
Add ID3 tag : No
Command line compressor : C:\Program Files (x86)\Exact Audio Copy\FLAC\FLAC.EXE
Additional command line options : -6 -V -T "ARTIST=%a" -T "TITLE=%t" -T "ALBUM=%g" -T "DATE=%y" -T "TRACKNUMBER=%n" -T "GENRE=%m" -T "COMMENT=%e" %j–picture="%i"%j %s -o %d


TOC of the extracted CD

Track | Start | Length | Start sector | End sector
––––––––––––––––––––––––––––-
1 | 0:00.00 | 6:19.38 | 0 | 28462
2 | 6:19.38 | 7:39.65 | 28463 | 62952
3 | 13:59.28 | 8:34.35 | 62953 | 101537
4 | 22:33.63 | 6:32.05 | 101538 | 130942
5 | 29:05.68 | 6:00.67 | 130943 | 158009
6 | 35:06.60 | 5:24.68 | 158010 | 182377
7 | 40:31.53 | 6:26.10 | 182378 | 211337
8 | 46:57.63 | 8:20.50 | 211338 | 248887
9 | 55:18.38 | 9:03.42 | 248888 | 289654


Range status and errors

Selected range

Filename T:\Hilton Ruiz - Live at Birdland.wav

Peak level 100.0 %
Extraction speed 0.2 X
Range quality 100.0 %
Copy CRC CD725B25
Copy OK

No errors occurred


AccurateRip summary

Track 1 accurately ripped (confidence 1) [8F7148AF]
Track 2 accurately ripped (confidence 1) [155506D1]
Track 3 accurately ripped (confidence 1) [322EC0EB]
Track 4 accurately ripped (confidence 1) [F928B2BE]
Track 5 accurately ripped (confidence 1) [4CDC9803]
Track 6 accurately ripped (confidence 1) [A36B85B4]
Track 7 accurately ripped (confidence 1) [32F6569B]
Track 8 accurately ripped (confidence 1) [FE6DD483]
Track 9 accurately ripped (confidence 1) [5FB7B18C]

All tracks accurately ripped

End of status report

==== Log checksum 7722604EF4C5B9BE3F3464A5372B43FCF5BB6F0725C6269AC4A24E899167FEDD ====



Hilton Ruiz - Live at Birdland (1993)



Hilton Ruiz - Live at Birdland (1993)