Subcategories

Hilton Ruiz - El Camino (1988) {Novus} [VINYL]

Posted By: tiburon
Hilton Ruiz - El Camino (1988) {Novus} [VINYL]

Hilton Ruiz - El Camino (1988) {Novus} [VINYL]
Vinyl Rip 16-44 | FLAC tracks level 8 | Full Scans 300dpi | 273MB + 5% Recovery
MP3 CBR 320 Kbps | 138MB + 5% Recovery
Genre: Latin Jazz

The follow-up to 1986's Something Grand finds pianist Hilton Ruiz using a similar group (including trumpeter Lew Soloff and Sam Rivers on tenor, soprano, and flute), but adding guitarist Rodney Jones and third percussionist Jerry Gonzalez. Ruiz contributed five of the six selections ("Come Dance With Me" is by trombonist Dick Griffin), and the music is advanced Afro-Cuban jazz that moves past bebop; in fact, the nearly 15-minute "Eastern Vibrations" is often quite free.
Track List
1 West Side Blues 6:42
2 Come Dance With Me 8:25
3 Sometimes I 6:26
4 El Camino (The Road) 6:19
5 Message From The Chief 1:54
6 Eastern Vibrations 14:55

musicians
Bass – Andy Gonzalez
Congas, Percussion – Jerry Gonzalez
Drums, Guiro – Steve Berrios
Guitar – Rodney Jones
Percussion, Congas – Jose Alexis Diaz
Piano, arrangments – Hilton Ruiz
Tenor Saxophone, Soprano Saxophone, Flute – Sam Rivers
Timbales – Endel Dueno
Trombone, arrangements on A2 & A3 – Dick Griffin
Trumpet – Lew Soloff

Producer by Ed Michel


LINEAGE: Novus 3024-1-N vinyl; Pro-Ject RM-5SE with Audio Tecnica AT440-MLa cartridge; Speedbox power supply; Creek Audio OBH-15; Audioquest King Cobra cables; M-Audio Audiophile 192 Soundcard ; Adobe Audition at 32-bit float 192khz; clicks and pops removed with Click Repair on very light settings, manually auditioning the output; further clicks removed with Adobe Audition 3.0; dithered and resampled using iZotope RX Advanced. Converted to FLAC in either Trader's Little Helper or dBPoweramp. Tags done with Foobar 2000 and Tag and Rename. Transferred Summer 2017.


––––––––––––––––––––––––––––––––––––––––
Analyzed: Hilton Ruiz / El Camino (The Road)
––––––––––––––––––––––––––––––––––––––––

DR Peak RMS Duration Track
––––––––––––––––––––––––––––––––––––––––
DR15 -2.54 dB -19.94 dB 6:44 01-West Side Blues
DR14 -2.00 dB -18.51 dB 8:27 02-Come Dance With Me
DR13 -7.09 dB -22.75 dB 6:29 03-Sometimes I
DR16 -3.02 dB -20.80 dB 6:20 04-El Camino (The Road)
DR14 -4.66 dB -21.72 dB 1:56 05-Message From The Chief
DR14 -2.91 dB -19.99 dB 14:59 06-Eastern Vibrations
––––––––––––––––––––––––––––––––––––––––

Number of tracks: 6
Official DR value: DR15

Samplerate: 44100 Hz
Channels: 2
Bits per sample: 16
Bitrate: 757 kbps
Codec: FLAC
================================================================================

Hilton Ruiz - El Camino (1988) {Novus} [VINYL]
Hilton Ruiz - El Camino (1988) {Novus} [VINYL]


Thanks to the original ripper