Subcategories

Hiroshima - Between Black & White (1999) {Windham Hill}

Posted By: tiburon
Hiroshima - Between Black & White (1999) {Windham Hill}

Hiroshima - Between Black & White (1999) {Windham Hill}
X Lossless Decoder | FLAC tracks level 8 | Cue+Log+M3U | Full Scans 300dpi | 314MB + 5% Recovery
MP3 CBR 320 Kbps | 128MB + 5% Recovery
Genre: Jazz, Fusion, Smooth Jazz

1999 marked 20 years since the band's unique combination of distinctively Japanese elements – June Kuramoto's classical-flavored koto, Johnny Mori's booming Taiko drum – with funky pop, urban, and jazz sensibilities first hit the instrumental music charts, and 25 years since saxophonist and East L.A. native Dan Kuramoto first formed the ensemble. Their Windham Hill Jazz debut (and 11th release overall) Between Black and White finds them once again blending contemporary root music, mystical Eastern exotica, and melodically rich smooth jazz that further deepens their larger commitment to global unity on the cusp of the new millennium. Hiroshima once again dares to push the envelope and engage diversity from track to track. The mix of dreamy koto and keyboard mysticism and thick hip-hop grooves and soulful sax on "Mix Plate" sets the tone for the whole project on the instrumental side. Hiroshima has worked with some great vocalists over the years, and Terry Steele – who wrote Luther Vandross' signature smash "Here and Now" – adds to the litany with his cool, romantic approach to "The Door Is Open."
Track List
1. Mix Plate (04:22)
2. Dreams (04:21)
3. The Door Is Open (04:35)
4. Joe Jazz (04:53)
5. Sup Poze (03:46)
6. Picasso's Dance (04:25)
7. After The Rain (04:17)
8. Things Unsaid (05:20)
9. Circle Of Friends (04:55)
10. World Of Dreams (04:45)
11. Omotai (01:30)
12. Sol Cruz (04:40)

musicians
Acoustic Guitar, Guitar, Vocals – Fred Schreuders
Bass, Vocals – Dean Cortez
Harmonica [Chromatic] – Hammer Smith
Lead Vocals – Terry Steele
Percussion [Cymbals], Djembe, Drums, Keyboards, Percussion, Drums [Taiko] – Danny Yamamoto
Percussion, Bongos, Congas, Djembe – Richie Gajate-Garcia
Percussion, Drums [Taiko, Odaiko, Okedo-daiko] – Johnny Mori
Percussion, Timbales – Luis Conte
Piano [Fender Rhodes], Keyboards, Organ [Hammond], Piano, Synthesizer – Kimo Cornwell
Koto, Percussion – June Kuramoto
Flute, Keyboards, Soprano Saxophone, Synthesizer, Vocals – Dan Kuramoto
Vibraphone – Vince Charles

Produced by Dan Kuramoto and June Kuramoto


X Lossless Decoder version 20181019 (151.1)

XLD extraction logfile from 2018-12-05 18:24:01 -0500

Hiroshima / Between Black & White

Used drive : HL-DT-ST DVDRAM SP80NB60 (revision PC00)
Media type : Pressed CD

Ripper mode : XLD Secure Ripper
Disable audio cache : OK for the drive with a cache less than 1375KiB
Make use of C2 pointers : NO
Read offset correction : 6
Max retry count : 20
Gap status : Analyzed, Appended (except HTOA)

TOC of the extracted CD
Track | Start | Length | Start sector | End sector
––––––––––––––––––––––––––––-
1 | 00:00:00 | 04:19:55 | 0 | 19479
2 | 04:19:55 | 04:20:27 | 19480 | 39006
3 | 08:40:07 | 04:37:18 | 39007 | 59799
4 | 13:17:25 | 04:53:45 | 59800 | 81819
5 | 18:10:70 | 03:46:67 | 81820 | 98836
6 | 21:57:62 | 04:26:00 | 98837 | 118786
7 | 26:23:62 | 04:17:20 | 118787 | 138081
8 | 30:41:07 | 05:20:13 | 138082 | 162094
9 | 36:01:20 | 04:54:42 | 162095 | 184186
10 | 40:55:62 | 04:45:35 | 184187 | 205596
11 | 45:41:22 | 01:30:00 | 205597 | 212346
12 | 47:11:22 | 04:40:20 | 212347 | 233366

List of alternate offset correction values
# | Absolute | Relative | Confidence
–––––––––––––––––––––
1 | -569 | -575 | 3
2 | 95 | 89 | 3

AccurateRip Summary (DiscID: 0017b3fe-00dce980-a80c270c)
Track 01 : OK (v1+v2, confidence 50/58)
Track 02 : OK (v1+v2, confidence 49/57)
Track 03 : OK (v1+v2, confidence 49/57)
Track 04 : OK (v1+v2, confidence 51/59)
Track 05 : OK (v1+v2, confidence 50/58)
Track 06 : OK (v1+v2, confidence 50/58)
Track 07 : OK (v1+v2, confidence 50/58)
Track 08 : OK (v1+v2, confidence 50/58)
Track 09 : OK (v1+v2, confidence 50/58)
Track 10 : OK (v1+v2, confidence 51/59)
Track 11 : OK (v1+v2, confidence 51/59)
Track 12 : OK (v1+v2, confidence 50/58)
->All tracks accurately ripped.

All Tracks
Album gain : -4.10 dB
Peak : 0.998840
Statistics
Read error : 0
Jitter error (maybe fixed) : 0
Retry sector count : 0
Damaged sector count : 0

Track 01
Filename : /Volumes/My Book/FLAC Rips Master/Rips/Hiroshima - Between Black & White (1999) [FLAC]/01 Mix Plate.flac
Pre-gap length : 00:02:00

Track gain : -3.71 dB
Peak : 0.925934
CRC32 hash (test run) : 8F4392EA
CRC32 hash : 8F4392EA
CRC32 hash (skip zero) : E295CD8F
AccurateRip v1 signature : 077D6504
AccurateRip v2 signature : D66BFA59
->Accurately ripped (v1+v2, confidence 21+29/58)
Statistics
Read error : 0
Jitter error (maybe fixed) : 0
Retry sector count : 0
Damaged sector count : 0

Track 02
Filename : /Volumes/My Book/FLAC Rips Master/Rips/Hiroshima - Between Black & White (1999) [FLAC]/02 Dreams.flac
Pre-gap length : 00:00:63

Track gain : -0.21 dB
Peak : 0.910614
CRC32 hash (test run) : B971320D
CRC32 hash : B971320D
CRC32 hash (skip zero) : 22897EFA
AccurateRip v1 signature : 4DAC1E2C
AccurateRip v2 signature : 1CAF19C8
->Accurately ripped (v1+v2, confidence 21+28/57)
Statistics
Read error : 0
Jitter error (maybe fixed) : 0
Retry sector count : 0
Damaged sector count : 0

Track 03
Filename : /Volumes/My Book/FLAC Rips Master/Rips/Hiroshima - Between Black & White (1999) [FLAC]/03 The Door Is Open.flac

Track gain : -4.22 dB
Peak : 0.944824
CRC32 hash (test run) : 94C7EE3B
CRC32 hash : 94C7EE3B
CRC32 hash (skip zero) : 30380998
AccurateRip v1 signature : 5FAAE1F7
AccurateRip v2 signature : 767E1D1A
->Accurately ripped (v1+v2, confidence 20+29/57)
Statistics
Read error : 0
Jitter error (maybe fixed) : 0
Retry sector count : 0
Damaged sector count : 0

Track 04
Filename : /Volumes/My Book/FLAC Rips Master/Rips/Hiroshima - Between Black & White (1999) [FLAC]/04 Joe Jazz.flac
Pre-gap length : 00:00:23

Track gain : -6.29 dB
Peak : 0.998840
CRC32 hash (test run) : C4AB6A52
CRC32 hash : C4AB6A52
CRC32 hash (skip zero) : 92C0BC11
AccurateRip v1 signature : 5CE50605
AccurateRip v2 signature : 314C32CF
->Accurately ripped (v1+v2, confidence 22+29/59)
Statistics
Read error : 0
Jitter error (maybe fixed) : 0
Retry sector count : 0
Damaged sector count : 0

Track 05
Filename : /Volumes/My Book/FLAC Rips Master/Rips/Hiroshima - Between Black & White (1999) [FLAC]/05 Sup Poze.flac

Track gain : -3.68 dB
Peak : 0.993805
CRC32 hash (test run) : 782BD5ED
CRC32 hash : 782BD5ED
CRC32 hash (skip zero) : 8872A6A6
AccurateRip v1 signature : B443964E
AccurateRip v2 signature : 7B722646
->Accurately ripped (v1+v2, confidence 21+29/58)
Statistics
Read error : 0
Jitter error (maybe fixed) : 0
Retry sector count : 0
Damaged sector count : 0

Track 06
Filename : /Volumes/My Book/FLAC Rips Master/Rips/Hiroshima - Between Black & White (1999) [FLAC]/06 Picasso's Dance.flac

Track gain : -2.64 dB
Peak : 0.966400
CRC32 hash (test run) : 2540D857
CRC32 hash : 2540D857
CRC32 hash (skip zero) : AE24C0E7
AccurateRip v1 signature : 7C1453BF
AccurateRip v2 signature : 7377485D
->Accurately ripped (v1+v2, confidence 21+29/58)
Statistics
Read error : 0
Jitter error (maybe fixed) : 0
Retry sector count : 0
Damaged sector count : 0

Track 07
Filename : /Volumes/My Book/FLAC Rips Master/Rips/Hiroshima - Between Black & White (1999) [FLAC]/07 After The Rain.flac
Pre-gap length : 00:00:12

Track gain : -1.61 dB
Peak : 0.909973
CRC32 hash (test run) : D6471E7F
CRC32 hash : D6471E7F
CRC32 hash (skip zero) : 5BB3A707
AccurateRip v1 signature : 9447497B
AccurateRip v2 signature : 0170E90F
->Accurately ripped (v1+v2, confidence 21+29/58)
Statistics
Read error : 0
Jitter error (maybe fixed) : 0
Retry sector count : 0
Damaged sector count : 0

Track 08
Filename : /Volumes/My Book/FLAC Rips Master/Rips/Hiroshima - Between Black & White (1999) [FLAC]/08 Things Unsaid.flac
Pre-gap length : 00:00:20

Track gain : -5.17 dB
Peak : 0.948822
CRC32 hash (test run) : 13DB9209
CRC32 hash : 13DB9209
CRC32 hash (skip zero) : 1A1593BC
AccurateRip v1 signature : ADDE032D
AccurateRip v2 signature : C3D3BCAF
->Accurately ripped (v1+v2, confidence 21+29/58)
Statistics
Read error : 0
Jitter error (maybe fixed) : 0
Retry sector count : 0
Damaged sector count : 0

Track 09
Filename : /Volumes/My Book/FLAC Rips Master/Rips/Hiroshima - Between Black & White (1999) [FLAC]/09 Circle Of Friends.flac
Pre-gap length : 00:00:58

Track gain : -3.52 dB
Peak : 0.969696
CRC32 hash (test run) : FD146F61
CRC32 hash : FD146F61
CRC32 hash (skip zero) : EA3727A6
AccurateRip v1 signature : 4F29CB2C
AccurateRip v2 signature : 9E7F6561
->Accurately ripped (v1+v2, confidence 21+29/58)
Statistics
Read error : 0
Jitter error (maybe fixed) : 0
Retry sector count : 0
Damaged sector count : 0

Track 10
Filename : /Volumes/My Book/FLAC Rips Master/Rips/Hiroshima - Between Black & White (1999) [FLAC]/10 World Of Dreams.flac
Pre-gap length : 00:00:55

Track gain : -3.03 dB
Peak : 0.929443
CRC32 hash (test run) : 66944815
CRC32 hash : 66944815
CRC32 hash (skip zero) : AE550053
AccurateRip v1 signature : 9410FF69
AccurateRip v2 signature : 94F3E0A5
->Accurately ripped (v1+v2, confidence 22+29/59)
Statistics
Read error : 0
Jitter error (maybe fixed) : 0
Retry sector count : 0
Damaged sector count : 0

Track 11
Filename : /Volumes/My Book/FLAC Rips Master/Rips/Hiroshima - Between Black & White (1999) [FLAC]/11 Omotai.flac
Pre-gap length : 00:00:40

Track gain : -3.78 dB
Peak : 0.996002
CRC32 hash (test run) : E462565F
CRC32 hash : E462565F
CRC32 hash (skip zero) : A26B140E
AccurateRip v1 signature : 85532BF7
AccurateRip v2 signature : F297BAE7
->Accurately ripped (v1+v2, confidence 22+29/59)
Statistics
Read error : 0
Jitter error (maybe fixed) : 0
Retry sector count : 0
Damaged sector count : 0

Track 12
Filename : /Volumes/My Book/FLAC Rips Master/Rips/Hiroshima - Between Black & White (1999) [FLAC]/12 Sol Cruz.flac

Track gain : -6.23 dB
Peak : 0.970703
CRC32 hash (test run) : CC6A7B11
CRC32 hash : CC6A7B11
CRC32 hash (skip zero) : B6271084
AccurateRip v1 signature : E8876E01
AccurateRip v2 signature : 2ECCE39C
->Accurately ripped (v1+v2, confidence 22+28/58)
Statistics
Read error : 0
Jitter error (maybe fixed) : 0
Retry sector count : 0
Damaged sector count : 0

No errors occurred

End of status report

––-BEGIN XLD SIGNATURE––-
CcU_ZV8Sa43HnzkdxKkArmhUv2wY3mpHu_EQBj5ODVH9SFQcpzBIN.nGVLGLatAz7HMUId.J1ij1JVyyzhGcn4ClvIbuUS0wNuncZye
––-END XLD SIGNATURE––-

Hiroshima - Between Black & White (1999) {Windham Hill}
Hiroshima - Between Black & White (1999) {Windham Hill}


Thanks to the original ripper