Subcategories

Horace Andy - Living In The Flood (1999)

Posted By: uff
Horace Andy - Living In The Flood (1999)

Horace Andy - Living In The Flood (1999)
Reggae | 1cd | EAC Rip | Wv + Cue + Log | covers
Melankolic CDSADX9 | rel: 1999 | 410Mb

Horace Andy is one of the true living legends of reggae, a great falsetto singer whose earliest work established a roots reggae foundation upon which numerous other singers would later build, and who has managed to continue to make vital and influential music throughout the 1990s and into the 21st century, largely thanks to his collaborations with the British trip-hop band Massive Attack. It's Massive Attack's Melankolic label that has given Andy a place to hang his hat, first with the career overview Skylarking, and now with an outstanding album of all-new material. The sound here is strictly roots, with real drums and horns (inexplicably, there are no musician credits), old-fashioned reggae grooves and cultural lyrics. Andy is singing as beautifully as ever (on every track except "True Love," which finds him painfully off pitch), and on such highlight tracks as "Juggling" and the epochal "Living in the Flood," you'd swear he was still in his 20s. (The U.S. version of this album includes a Mad Professor remix of "After All," and there is a hidden track embedded in the program after it.) ~Allmusic

Track listing
01. Aftrer All (5:13)
02. Smiling Face (3:53)
03. Juggling (3:54)
04. My Lord (4:15)
05. Seven Seals (3:34)
06. Johnny Too Bad (3:38)
07. Doldrums (4:21)
08. Right Time (3:08)
09. True Love (4:34)
10. Living In The Flood (4:54)
11. Girl of My Dreams (4:06)
12. Some People (3:31)
13. Don't Blame the Children (10:47)


EAC extraction logfile from 20. January 2007, 21:10 for CD
Horace Andy / Living in the Flood

Used drive : HL-DT-STDVDRAM GSA-4165B Adapter: 0 ID: 0
Read mode : Secure with NO C2, accurate stream, disable cache
Read offset correction : 667
Overread into Lead-In and Lead-Out : No

Used output format : Internal WAV Routines
44.100 Hz; 16 Bit; Stereo
Use compression offset : 30

Other options :
Fill up missing offset samples with silence : Yes
Delete leading and trailing silent blocks : No
Installed external ASPI interface


Range status and errors
Selected range
Filename F:\Horace Andy - Living in the Flood.wav

Peak level 97.9 %
Range quality 100.0 %
CRC 77501A46
Copy OK

No errors occured

End of status report



[CUETools log; Date: 2016.05.05. 12:30:19; Version: 2.1.5]
[AccurateRip ID: 001a62f7-01080a24-ab0e100d] found.
Track [ CRC | V2 ] Status
01 [eaf72223|c398a2ad] (5+4/9) Accurately ripped
02 [52443133|77f33aef] (5+4/9) Accurately ripped
03 [1ac7c67e|2a18801d] (5+4/9) Accurately ripped
04 [0da0cf60|43dc05f9] (5+4/9) Accurately ripped
05 [ac2eb078|bdab5637] (5+4/9) Accurately ripped
06 [963caa41|350795d2] (5+4/9) Accurately ripped
07 [9d12084c|13990cf7] (4+4/8) Accurately ripped
08 [b3f8d75e|318b1668] (5+4/9) Accurately ripped
09 [2443af28|c9cfae68] (5+4/9) Accurately ripped
10 [49e37553|aaec1832] (5+4/9) Accurately ripped
11 [2e5cb773|c88e3389] (5+4/9) Accurately ripped
12 [0738bf9e|8269e242] (5+3/8) Accurately ripped
13 [86dd41ff|dc3c5e13] (5+4/9) Accurately ripped

Track Peak [ CRC32 ] [W/O NULL] [ LOG ]
– 97,9 [FFBF322E] [77501A46] W/O NULL
01 97,9 [307DD15B] [4D087EF8]
02 97,9 [BA03D88B] [49485744]
03 97,9 [74FE90D8] [7CE92466]
04 97,9 [E7B373A8] [7D1FDE73]
05 97,9 [4A49E960] [31E0A774]
06 97,9 [049DF7A2] [A17B420A]
07 97,9 [ACC64801] [6D5C793A]
08 97,9 [8725A02E] [92DB8DF1]
09 97,9 [4CF6ABA5] [0D68069A]
10 97,9 [0919A99E] [247A090B]
11 97,9 [A919A40F] [52BD21ED]
12 97,9 [EF1E8ACF] [61EFAACB]
13 97,9 [20EF2D91] [E9F4F8F4]


original uploader unknown, found in my archive
Bigfile
Datafile

password: asd