Subcategories

Horace Silver - Horace Silver And The Jazz Messengers (1956) [Reissue 2005]

Posted By: gribovar
Horace Silver - Horace Silver And The Jazz Messengers (1956) [Reissue 2005]

Horace Silver - Horace Silver And The Jazz Messengers (1956) [Reissue 2005]
EAC Rip | APE (image+.cue+log) - 280 MB | MP3 CBR 320 kbps (LAME 3.93) - 117 MB | Covers (14 MB) included
Genre: Jazz | RAR 3% Rec. | Label: Blue Note (7243 8 75339 2 9)

In 1954, pianist Horace Silver teamed with drummer Art Blakey to form a cooperative ensemble that would combine the dexterity and power of bebop with the midtempo, down-home grooves of blues and gospel music. The results are what would become known as hard bop, and the Jazz Messengers were one of the leading exponents of this significant era in jazz history. Before Silver's departure and Blakey's lifetime of leadership, this first major session by the original Jazz Messengers set the standard by which future incarnations of the group would be measured. The tunes here are all Silver's, save the bopping "Hankerin'" by tenor man Hank Mobley. Such cuts as the opening "Room 608," the bluesy "Creepin' In," and "Hippy" are excellent examples of both Silver's creative composing style and the Messengers' signature sound. Of course, the most remembered tunes from the session are the classic "The Preacher" and "Doodlin'," two quintessential hard bop standards. In all, this set is not only a stunning snapshot of one of the first groups of its kind, but the very definition of a style that dominated jazz in the 1950s and '60s.
Tracklist:
01. Room 608
02. Creepin' In
03. Stop Time
04. To Whom It May Concern
05. Hippy
06. The Preacher
07. Hankerin'
08. Doodlin'

Total time: 43:55

Exact Audio Copy V0.99 prebeta 4 from 23. January 2008

Отчёт EAC об извлечении, выполненном 20. августа 2009, 21:46

Horace Silver / Horace Silver And The Jazz Messengers

Дисковод: _NEC NR-7900A Adapter: 3 ID: 0

Режим чтения : Достоверность
Использование точного потока : Да
Отключение кэша аудио : Да
Использование указателей C2 : Нет

Коррекция смещения при чтении : 685
Способность читать области Lead-in и Lead-out : Нет
Заполнение пропущенных сэмплов тишиной : Да
Удаление блоков с тишиной в начале и конце : Нет
При вычислениях CRC использовались нулевые сэмплы : Да
Интерфейс : Установленный внешний ASPI-интерфейс

Выходной формат : Внутренние WAV-операции
Формат сэмплов : 44.100 Гц; 16 бит; стерео


TOC извлечённого CD

Трек | Старт | Длительность | Начальный сектор | Конечный сектор
––––––––––––––––––––––––––––––––––-
1 | 0:00.00 | 5:22.44 | 0 | 24193
2 | 5:22.44 | 7:26.74 | 24194 | 57717
3 | 12:49.43 | 4:07.57 | 57718 | 76299
4 | 16:57.25 | 5:11.15 | 76300 | 99639
5 | 22:08.40 | 5:23.62 | 99640 | 123926
6 | 27:32.27 | 4:18.41 | 123927 | 143317
7 | 31:50.68 | 5:18.42 | 143318 | 167209
8 | 37:09.35 | 6:45.49 | 167210 | 197633
9 | 46:27.09 | 27:30.66 | 209034 | 332849


Характеристики диапазона извлечения и сообщения об ошибках

Выбранный диапазон

Имя файла E:\Up-Down\Horace Silver - Horace Silver And The Jazz Messengers\Horace Silver - Horace Silver And The Jazz Messengers.wav

Пиковый уровень 97.9 %
Качество диапазона 99.8 %
CRC копии 2EA24AA3
Копирование… OK

Ошибок не произошло


AccurateRip: сводка

Трек 1 точное извлечение (доверие 2) [7559AFCE]
Трек 2 точное извлечение (доверие 2) [4A965CC6]
Трек 3 точное извлечение (доверие 2) [6E123EF2]
Трек 4 точное извлечение (доверие 2) [72B64FE8]
Трек 5 точное извлечение (доверие 2) [6496111D]
Трек 6 точное извлечение (доверие 2) [D37F0696]
Трек 7 точное извлечение (доверие 2) [FB343F18]
Трек 8 точное извлечение (доверие 2) [58D7B541]

Все треки извлечены точно

Конец отчёта

[CUETools log; Date: 06.03.2019 13:57:21; Version: 2.1.4]
CD-Extra data track length 27:30:66.
[CTDB TOCID: 3b4mtOVijDIJLidlPj.uayFVdqc-] found.
Track | CTDB Status
1 | (75/82) Accurately ripped, or (2/82) differs in 73 samples @00:10:42-00:10:43,00:22:30,00:28:30,00:28:42
2 | (78/82) Accurately ripped
3 | (78/82) Accurately ripped
4 | (77/82) Accurately ripped
5 | (77/82) Accurately ripped
6 | (77/82) Accurately ripped
7 | (77/82) Accurately ripped
8 | (76/82) Accurately ripped
[AccurateRip ID: 000fa485-006c6a25-6b115609] found.
Track [ CRC | V2 ] Status
01 [7559afce|040fd2f5] (3+4/7) Accurately ripped
02 [4a965cc6|9914fed1] (3+4/7) Accurately ripped
03 [6e123ef2|fe8b0ecf] (2+4/6) Accurately ripped
04 [72b64fe8|31dd1b9a] (3+4/7) Accurately ripped
05 [6496111d|75cd40fb] (3+4/7) Accurately ripped
06 [d37f0696|5857c84d] (3+3/6) Accurately ripped
07 [fb343f18|7ab3aa1a] (3+3/6) Accurately ripped
08 [58d7b541|84232989] (2+3/5) Accurately ripped

Track Peak [ CRC32 ] [W/O NULL] [ LOG ]
– 97,9 [2EA24AA3] [1A90A13E] CRC32
01 97,9 [98E5B45F] [F4372873]
02 97,7 [8D4DFEFB] [14665891]
03 97,9 [A2D374D0] [A83DECC0]
04 97,9 [168B3FC7] [6C724946]
05 97,9 [CA1499E2] [EB16AE70]
06 97,9 [A88EDE0B] [4D4DE5E3]
07 97,9 [3CE14694] [46B2F019]
08 97,9 [3884C36D] [55993AC3]

Thanks to strizh64

See also:
Horace Silver - Further Explorations By The Horace Silver Quintet (1958) [Reissue 2008]
The Horace Silver Quintet - Finger Poppin' (1959) [Reissue 2003]
The Horace Silver Quintet - Song For My Father (1965) [Reissue 1999]