Subcategories

Horace Silver - Further Explorations By The Horace Silver Quintet (1958) [Reissue 2008]

Posted By: gribovar
Horace Silver - Further Explorations By The Horace Silver Quintet (1958) [Reissue 2008]

Horace Silver - Further Explorations By The Horace Silver Quintet (1958) [Reissue 2008]
EAC Rip | FLAC (image+.cue+log) - 307 MB | MP3 CBR 320 kbps (LAME 3.93) - 109 MB | Covers (9 MB) included
Genre: Jazz | RAR 3% Rec. | Label: Blue Note (50999 5 14379 2 3)

For a brief time, tenor saxophonist Clifford Jordan and trumpeter Art Farmer were the frontline of the Horace Silver Quintet. This CD reissue finds the group (which also includes bassist Teddy Kotick and drummer Louis Hayes) performing five of Silver's lesser-known originals and the standard "Ill Wind." The lyrical Farmer and the up-and-coming Jordan have plenty of fine solos, as does the influential Silver, whose funky, witty style stood apart from the prevailing Bud Powell influence of the era. Although none of the newer songs caught on as standards, this set (which has plenty of mood and groove variation) holds together very well and still sounds fresh 50 years later.
Tracklist:
01. The Outlaw
02. Melancholy Mood
03. Pyramid
04. Moon Rays
05. Safari
06. Ill Wind

Total time: 42:27

Exact Audio Copy V0.99 prebeta 4 from 23. January 2008

EAC extraction logfile from 5. August 2008, 7:36

Horace Silver Quintet / Further Explorations By The Horace Silver Quintet

Used drive : ATAPI DVD A DH20A3H Adapter: 1 ID: 1

Read mode : Secure
Utilize accurate stream : Yes
Defeat audio cache : Yes
Make use of C2 pointers : No

Read offset correction : 6
Overread into Lead-In and Lead-Out : No
Fill up missing offset samples with silence : Yes
Delete leading and trailing silent blocks : No
Null samples used in CRC calculations : Yes
Used interface : Installed external ASPI interface

Used output format : User Defined Encoder
Selected bitrate : 768 kBit/s
Quality : High
Add ID3 tag : No
Command line compressor : C:\Program Files\Exact Audio Copy\flac.exe
Additional command line options : -V -8 -T "artist=%a" -T "title=%t" -T "album=%g" -T "date=%y" -T "tracknumber=%n" -T "genre=%m" %s


TOC of the extracted CD

Track | Start | Length | Start sector | End sector
––––––––––––––––––––––––––––-
1 | 0:00.00 | 6:08.22 | 0 | 27621
2 | 6:08.22 | 6:36.27 | 27622 | 57348
3 | 12:44.49 | 6:39.16 | 57349 | 87289
4 | 19:23.65 | 10:57.17 | 87290 | 136581
5 | 30:21.07 | 5:12.01 | 136582 | 159982
6 | 35:33.08 | 6:54.13 | 159983 | 191045


Range status and errors

Selected range

Filename D:\WinRar\Horace Silver - Further Explorations (1958 RVG){FLAC Full Scans]\Horace Silver Quintet - Further Explorations By The Horace Silver Quintet.wav

Peak level 97.9 %
Range quality 99.9 %
Test CRC F2EB3518
Copy CRC F2EB3518
Copy OK

No errors occurred


AccurateRip summary

Track 1 accurately ripped (confidence 2) [0BAC8985]
Track 2 accurately ripped (confidence 2) [2CFC88C9]
Track 3 accurately ripped (confidence 2) [83A0EB38]
Track 4 accurately ripped (confidence 2) [56CD8B34]
Track 5 accurately ripped (confidence 2) [C02D8078]
Track 6 accurately ripped (confidence 2) [4B3FDD22]

All tracks accurately ripped

End of status report

[CUETools log; Date: 06.02.2019 23:03:35; Version: 2.1.4]
[CTDB TOCID: wSVRL.1ySxYkEcYBUMH9XtzppAs-] found.
Track | CTDB Status
1 | (44/45) Accurately ripped
2 | (44/45) Accurately ripped
3 | (43/45) Accurately ripped
4 | (44/45) Accurately ripped
5 | (44/45) Accurately ripped
6 | (44/45) Accurately ripped
[AccurateRip ID: 000a11a0-003644e6-4509f306] found.
Track [ CRC | V2 ] Status
01 [0bac8985|79877cb3] (15+12/41) Accurately ripped
02 [2cfc88c9|eaab7faf] (16+12/42) Accurately ripped
03 [83a0eb38|f2d8da3c] (16+12/41) Accurately ripped
04 [56cd8b34|6a3e37db] (16+12/42) Accurately ripped
05 [c02d8078|b07b2400] (16+12/42) Accurately ripped
06 [4b3fdd22|82a636d3] (16+12/42) Accurately ripped
Offsetted by -664:
01 [8da403f5] (00/41) No match (V2 was not tested)
02 [312e9049] (00/42) No match (V2 was not tested)
03 [738833e0] (00/41) No match (V2 was not tested)
04 [c21d9a04] (00/42) No match (V2 was not tested)
05 [c822dc28] (00/42) No match (V2 was not tested)
06 [ccc5c882] (00/42) No match (V2 was not tested)
Offsetted by -12:
01 [b17e1e3d] (00/41) No match (V2 was not tested)
02 [f8a0e889] (00/42) No match (V2 was not tested)
03 [91379acc] (00/41) No match (V2 was not tested)
04 [dee9351c] (00/42) No match (V2 was not tested)
05 [d7743fd0] (00/42) No match (V2 was not tested)
06 [335f95d2] (00/42) No match (V2 was not tested)
Offsetted by -6:
01 [5e9553e1] (00/41) No match (V2 was not tested)
02 [92ceb8a9] (00/42) No match (V2 was not tested)
03 [8a6c4302] (00/41) No match (V2 was not tested)
04 [9adb6028] (00/42) No match (V2 was not tested)
05 [4bd0e024] (00/42) No match (V2 was not tested)
06 [bf4fb97a] (00/42) No match (V2 was not tested)

Track Peak [ CRC32 ] [W/O NULL] [ LOG ]
– 97,9 [F2EB3518] [3F7CD32C] CRC32
01 97,9 [7AD5169A] [A1CD8D05]
02 97,9 [48850AB2] [DCCC325B]
03 97,9 [FE4823BD] [33312E2E]
04 97,9 [11282FB4] [7BE979E3]
05 97,9 [966D90B3] [FAD69436]
06 97,9 [AB15D894] [B5D15066]

Thanks to Mazeppa

See also:
The Horace Silver Quintet - Finger Poppin' (1959) [Reissue 2003]