Subcategories

Horowitz Plays Liszt (2011)

Posted By: peotuvave
Horowitz Plays Liszt (2011)

Horowitz Plays Liszt (2011)
EAC Rip | Flac (Image + cue + log) | 4 CDs | Full Scans | 803 MB
Genre: Classical | Label: Sony | Catalog Number: 783987

To commemorate Liszt's 200th birthday year, this release gathers together all of Vladimir Horowitz's Liszt recordings controlled by the Sony/BMG group and previously issued by RCA, CBS, and Sony in a four-disc collection. Each disc covers a specific period of Horowitz's recording career, such as "The Last Decade", "Horowitz at Carnegie Hall–Early Live Recordings", and "Early Studio Recordings".

Composer: Franz Liszt
Performer: Vladimir Horowitz

Reviews: Though Disc 1 is entitled "CBS Studio Recordings and Horowitz's Return to Carnegie Hall", the Scherzo & March and B minor sonata respectively stem from Queens College in New York and St. Louis' Powell Hall. More importantly however, the recordings trace Horowitz's Liszt from his early 1930 RCA Victor sessions to merely days before his sudden death from a heart attack at age 86. Horowitz's Liszt interpretations are multi-leveled in their fusion of power, poetry, theatricality, and intimacy, even when the playing is variable.

During the late 1970s and early 1980s, for example, Horowitz entered a mannered period, as his dynamic yet cramped and convoluted Mephisto Waltz No. 1 and Ballade No. 2 bear out. Neither B minor sonata completely satisfies. The recently unearthed 1947 live Carnegie Hall reading oozes with daring and imagination but doesn't match the coherent unity of the 1932 HMV recording (available from EMI and APR), and also contains a 22-bar cut beginning at the 3/2 measure marked Pesante (page 16 of the Kalmus edition score). By contrast, the uncut 1976 Liszt Sonata suffers from pianistic loose ends in the form of wrong and missed notes, pounded-out climaxes, and cautious octaves. In fairness, Horowitz's subsequent Liszt Sonata performances the following season grew increasingly assured and accurate.

Everyone's written about the 1930 Paganini Etude's thunderous descending interlocking octaves, yet no one has mentioned the fact that Horowitz drops beats. Nevertheless, rhythmic precision and canny timing impart character and thrust throughout virtuoso showpieces like the Hungarian Rhapsodies (Nos. 2, 15, and 19 feature the pianist's dazzlingly elaborate textural emendations), the Scherzo & March, and Horowitz's scintillating retooling of Liszt's Saint-Saëns Danse Macabre and Mendelssohn Wedding March transcriptions.

Among the five versions of Valse Oubliée No. 1, I prefer the live 1975 performance's playful dynamic inflections at the beginning and slightly greater expressive leeway in softer passages. But as much as I admire the 1951 studio Petrarch Sonnet No. 104's nervous intensity, the generally more expansive live 1986 version boasts no less hair-raising climaxes (the 82-year-old pianist could still shake out stunning octaves when so inclined).

Jeremy Siepmann's balanced and perceptive annotations do full and frank justice to the Horowitz/Liszt connection. Sony/BMG's transfers appear identical to those in the complete Horowitz Original Jacket Collection. In short, Horowitz collectors already may have much, most, or all of this material, but novices wishing to explore Horowitz's Liszt in depth won't go wrong.

Tracklisting:

1. Consolations (6) for Piano, S 172: no 2 in E major, Un poco più mosso by Franz Liszt
Performer: Vladimir Horowitz (Piano)
Period: Romantic
Written: 1849-1850; Weimar, Germany

2. Hungarian Rhapsodies (19) for Piano, S 244: no 19 in D minor by Franz Liszt
Performer: Vladimir Horowitz (Piano)
Period: Romantic
Written: 1885; Budapest, Hungary

3. Scherzo and March for Piano, S 177 by Franz Liszt
Performer: Vladimir Horowitz (Piano)
Period: Romantic
Written: 1851; Weimar, Germany

4. Années de pèlerinage, première année, S 160 "Suisse": no 6, Vallée d'Obermann by Franz Liszt
Performer: Vladimir Horowitz (Piano)
Period: Romantic
Written: 1848-1854; Weimar, Germany

5. Sonata for Piano in B minor, S 178 by Franz Liszt
Performer: Vladimir Horowitz (Piano)
Period: Romantic
Written: 1852-1853; Weimar, Germany

6. Années de pèlerinage, première année, S 160 "Suisse": no 4, Au bord d'une source by Franz Liszt
Performer: Vladimir Horowitz (Piano)
Period: Romantic
Written: 1848-1854; Weimar, Germany

7. Valses oubliées (4) for Piano, S 215: no 1 in F sharp major by Franz Liszt
Performer: Vladimir Horowitz (Piano)
Period: Romantic
Written: 1881; Rome, Italy

8. Consolations (6) for Piano, S 172: no 3 in D flat major, Lento placido by Franz Liszt
Performer: Vladimir Horowitz (Piano)
Period: Romantic
Written: 1849-1850; Weimar, Germany

9. Der Tanz in der Dorfschenke, S 514 "Mephisto Waltz no 1" by Franz Liszt
Performer: Vladimir Horowitz (Piano)
Period: Romantic
Written: 1859-1860; Weimar, Germany

10. Ballade for Piano no 2 in B minor, S 171 by Franz Liszt
Performer: Vladimir Horowitz (Piano)
Period: Romantic
Written: 1853; Weimar, Germany

11. Soirées de Vienne (9) after Schubert, S 427: no 6 by Franz Liszt
Performer: Vladimir Horowitz (Piano)
Period: Romantic
Written: 1852; Weimar, Germany

12. Années de pèlerinage, deuxième année, S 161 "Italie": no 5, Sonetto 104 del Petrarca by Franz Liszt
Performer: Vladimir Horowitz (Piano)
Period: Romantic
Written: 1837-1849; Weimar, Germany

13. Valses oubliées (4) for Piano, S 215: no 1 in F sharp major by Franz Liszt
Performer: Vladimir Horowitz (Piano)
Period: Romantic
Written: 1881; Rome, Italy

14. Valses oubliées (4) for Piano, S 215: no 1 in F sharp major by Franz Liszt
Performer: Vladimir Horowitz (Piano)
Period: Romantic
Written: 1881; Rome, Italy

15. Prelude "Weinen, Klagen…" (JS Bach) for Piano, S 179 by Franz Liszt
Performer: Vladimir Horowitz (Piano)
Period: Romantic
Written: 1859; Weimar, Germany

16. Isolde's "Liebestod" from Wagner's "Tristan", S 447 by Franz Liszt
Performer: Vladimir Horowitz (Piano)
Period: Romantic
Written: 1867; Weimar, Germany

17. Hungarian Rhapsodies (19) for Piano, S 244: no 6 in D flat major by Franz Liszt
Performer: Vladimir Horowitz (Piano)
Period: Romantic
Written: 1846-1885; Weimar, Germany

18. Hungarian Rhapsodies (19) for Piano, S 244: no 2 in C sharp minor by Franz Liszt
Performer: Vladimir Horowitz (Piano)
Period: Romantic
Written: 1847; Hungary

19. Sonata for Piano in B minor, S 178: 1st movement, Lento assai - Allegro energico by Franz Liszt
Performer: Vladimir Horowitz (Piano)
Period: Romantic
Written: 1852-1853; Weimar, Germany

20. Sonata for Piano in B minor, S 178: 2nd movement, Grandioso - Recitativo by Franz Liszt
Performer: Vladimir Horowitz (Piano)
Period: Romantic
Written: 1852-1853; Weimar, Germany

21. Sonata for Piano in B minor, S 178: Andante sostenuto by Franz Liszt
Performer: Vladimir Horowitz (Piano)
Period: Romantic
Written: 1852-1853; Weimar, Germany

22. Consolations (6) for Piano, S 172: no 4 in D flat major, Quasi adagio by Franz Liszt
Performer: Vladimir Horowitz (Piano)
Period: Romantic
Written: 1849-1850; Weimar, Germany

23. Consolations (6) for Piano, S 172: no 5 in E major, Andantino by Franz Liszt
Performer: Vladimir Horowitz (Piano)
Period: Romantic
Written: 1849-1850; Weimar, Germany

24. Valses oubliées (4) for Piano, S 215: no 1 in F sharp major by Franz Liszt
Performer: Vladimir Horowitz (Piano)
Period: Romantic
Written: 1881; Rome, Italy

25. Grandes Etudes (6) de Paganini, S 141: no 2 in E flat major by Franz Liszt
Performer: Vladimir Horowitz (Piano)
Period: Romantic
Written: 1851; Weimar, Germany

26. Hungarian Rhapsodies (19) for Piano, S 244: no 6 in D flat major by Franz Liszt
Performer: Vladimir Horowitz (Piano)
Period: Romantic
Written: 1846-1885; Weimar, Germany

27. Années de pèlerinage, deuxième année, S 161 "Italie": no 5, Sonetto 104 del Petrarca by Franz Liszt
Performer: Vladimir Horowitz (Piano)
Period: Romantic
Written: 1837-1849; Weimar, Germany

28. Années de pèlerinage, première année, S 160 "Suisse": no 4, Au bord d'une source by Franz Liszt
Performer: Vladimir Horowitz (Piano)
Period: Romantic
Written: 1848-1854; Weimar, Germany

29. Harmonies poétiques et réligieuses, S 173: no 7, Funérailles by Franz Liszt
Performer: Vladimir Horowitz (Piano)
Period: Romantic
Written: 1845-1852; Weimar, Germany

30. Danse Macabre (Saint-Saëns), S 555 by Franz Liszt
Performer: Vladimir Horowitz (Piano)
Period: Romantic
Written: 1876; Rome, Italy

31. Wedding March and Dance of the Elves from Mendelssohn's "A Midsummernight's Dream", S 410 by Franz Liszt
Performer: Vladimir Horowitz (Piano)
Period: Romantic
Written: 1849-1850; Weimar, Germany

32. Hungarian Rhapsodies (19) for Piano, S 244: no 15 in a "Rákóczy March" by Franz Liszt
Performer: Vladimir Horowitz (Piano)
Period: Romantic
Written: 1846-1886

33. Valses oubliées (4) for Piano, S 215: no 1 in F sharp major by Franz Liszt
Performer: Vladimir Horowitz (Piano)
Period: Romantic
Written: 1881; Rome, Italy

Exact Audio Copy V1.0 beta 3 from 29. August 2011

EAC extraction logfile from 21. February 2012, 15:49

Horowitz, Vladimir / Horowitz plays Liszt 1/4

Used drive : Optiarc DVD RW AD-7260S Adapter: 2 ID: 0

Read mode : Secure
Utilize accurate stream : Yes
Defeat audio cache : Yes
Make use of C2 pointers : No

Read offset correction : 48
Overread into Lead-In and Lead-Out : No
Fill up missing offset samples with silence : Yes
Delete leading and trailing silent blocks : No
Null samples used in CRC calculations : Yes
Used interface : Native Win32 interface for Win NT & 2000

Used output format : User Defined Encoder
Selected bitrate : 768 kBit/s
Quality : High
Add ID3 tag : No
Command line compressor : C:\Program Files (x86)\Exact Audio Copy\FLAC\FLAC.EXE
Additional command line options : -6 -V -T "ARTIST=%artist%" -T "TITLE=%title%" -T "ALBUM=%albumtitle%" -T "DATE=%year%" -T "TRACKNUMBER=%tracknr%" -T "GENRE=%genre%" -T "COMMENT=%comment%" -T "BAND=%albuminterpret%" -T "ALBUMARTIST=%albuminterpret%" -T "COMPOSER=%composer%" %haslyrics%–tag-from-file=LYRICS="%lyricsfile%"%haslyrics% -T "DISCNUMBER=%cdnumber%" -T "TOTALDISCS=%totalcds%" -T "TOTALTRACKS=%numtracks%" %hascover%–picture="%coverfile%"%hascover% %source% -o %dest%


TOC of the extracted CD

Track | Start | Length | Start sector | End sector
––––––––––––––––––––––––––––-
1 | 0:00.00 | 3:33.63 | 0 | 16037
2 | 3:33.63 | 9:48.60 | 16038 | 60197
3 | 13:22.48 | 10:39.49 | 60198 | 108171
4 | 24:02.22 | 13:15.12 | 108172 | 167808
5 | 37:17.34 | 30:06.30 | 167809 | 303288
6 | 67:23.64 | 3:56.19 | 303289 | 321007
7 | 71:20.08 | 3:04.16 | 321008 | 334823


Range status and errors

Selected range

Filename D:\Horowitz plays Liszt CD1.wav

Peak level 96.6 %
Extraction speed 4.5 X
Range quality 100.0 %
Test CRC BB1B2CA4
Copy CRC BB1B2CA4
Copy OK

No errors occurred


AccurateRip summary

Track 1 accurately ripped (confidence 4) [663682C7] (AR v2)
Track 2 accurately ripped (confidence 4) [87AC997D] (AR v2)
Track 3 accurately ripped (confidence 4) [2EDC1EF8] (AR v2)
Track 4 accurately ripped (confidence 4) [C10911EB] (AR v2)
Track 5 accurately ripped (confidence 3) [58B57622] (AR v2)
Track 6 accurately ripped (confidence 4) [FF811B71] (AR v2)
Track 7 accurately ripped (confidence 3) [02A8CA8E] (AR v2)

All tracks accurately ripped

End of status report

–– CUETools DB Plugin V2.1.3

[CTDB TOCID: IFVysYD1P1jqLsPmPkTNrhCr91o-] found, Submit result: IFVysYD1P1jqLsPmPkTNrhCr91o- has been confirmed
[edb849c4] (2/2) Accurately ripped


==== Log checksum 21B1C0D69BB88F01F40489832A01B6C64DE668A4AAA277823F225B26317D7A06 ====



Exact Audio Copy V1.0 beta 3 from 29. August 2011

EAC extraction logfile from 21. February 2012, 16:27

Horowitz, Vladimir / Horowitz plays Liszt 2/4

Used drive : Optiarc DVD RW AD-7260S Adapter: 2 ID: 0

Read mode : Secure
Utilize accurate stream : Yes
Defeat audio cache : Yes
Make use of C2 pointers : No

Read offset correction : 48
Overread into Lead-In and Lead-Out : No
Fill up missing offset samples with silence : Yes
Delete leading and trailing silent blocks : No
Null samples used in CRC calculations : Yes
Used interface : Native Win32 interface for Win NT & 2000

Used output format : User Defined Encoder
Selected bitrate : 768 kBit/s
Quality : High
Add ID3 tag : No
Command line compressor : C:\Program Files (x86)\Exact Audio Copy\FLAC\FLAC.EXE
Additional command line options : -6 -V -T "ARTIST=%artist%" -T "TITLE=%title%" -T "ALBUM=%albumtitle%" -T "DATE=%year%" -T "TRACKNUMBER=%tracknr%" -T "GENRE=%genre%" -T "COMMENT=%comment%" -T "BAND=%albuminterpret%" -T "ALBUMARTIST=%albuminterpret%" -T "COMPOSER=%composer%" %haslyrics%–tag-from-file=LYRICS="%lyricsfile%"%haslyrics% -T "DISCNUMBER=%cdnumber%" -T "TOTALDISCS=%totalcds%" -T "TOTALTRACKS=%numtracks%" %hascover%–picture="%coverfile%"%hascover% %source% -o %dest%


TOC of the extracted CD

Track | Start | Length | Start sector | End sector
––––––––––––––––––––––––––––-
1 | 0:00.00 | 4:27.59 | 0 | 20083
2 | 4:27.59 | 12:18.41 | 20084 | 75474
3 | 16:46.25 | 15:21.51 | 75475 | 144600
4 | 32:08.01 | 7:29.28 | 144601 | 178303
5 | 39:37.29 | 6:21.25 | 178304 | 206903
6 | 45:58.54 | 3:20.53 | 206904 | 221956
7 | 49:19.32 | 5:22.31 | 221957 | 246137
8 | 54:41.63 | 6:39.62 | 246138 | 276124


Range status and errors

Selected range

Filename D:\Horowitz plays Liszt CD2.wav

Peak level 96.6 %
Extraction speed 4.0 X
Range quality 100.0 %
Test CRC FA77403E
Copy CRC FA77403E
Copy OK

No errors occurred


AccurateRip summary

Track 1 cannot be verified as accurate (confidence 3) [82BAB86E], AccurateRip returned [9EC558A5] (AR v2)
Track 2 cannot be verified as accurate (confidence 3) [03123671], AccurateRip returned [8764BB57] (AR v2)
Track 3 cannot be verified as accurate (confidence 3) [3F2A1EB7], AccurateRip returned [90C51146] (AR v2)
Track 4 cannot be verified as accurate (confidence 3) [01A8C682], AccurateRip returned [E715E32F] (AR v2)
Track 5 cannot be verified as accurate (confidence 3) [705402CB], AccurateRip returned [F77BF07B] (AR v2)
Track 6 cannot be verified as accurate (confidence 4) [8487892A], AccurateRip returned [DD76A81A] (AR v2)
Track 7 cannot be verified as accurate (confidence 4) [ECBDD776], AccurateRip returned [3AC688F9] (AR v2)
Track 8 cannot be verified as accurate (confidence 4) [974F0516], AccurateRip returned [DAB8C859] (AR v2)

No tracks could be verified as accurate
You may have a different pressing from the one(s) in the database

End of status report

–– CUETools DB Plugin V2.1.3

[CTDB TOCID: M0MLwPcbcoS5_YH6dM8SPJvWDS0-] found, Submit result: M0MLwPcbcoS5_YH6dM8SPJvWDS0- has been confirmed
[c9b5a9c7] (2/2) Accurately ripped


==== Log checksum 226B60B9AFD78D083137DD4216020CF74EE4F821B77E4304CA3412803374988C ====

Exact Audio Copy V1.0 beta 3 from 29. August 2011

EAC extraction logfile from 21. February 2012, 17:06

Horowitz, Vladimir / Horowitz plays Liszt 3/4

Used drive : Optiarc DVD RW AD-7260S Adapter: 2 ID: 0

Read mode : Secure
Utilize accurate stream : Yes
Defeat audio cache : Yes
Make use of C2 pointers : No

Read offset correction : 48
Overread into Lead-In and Lead-Out : No
Fill up missing offset samples with silence : Yes
Delete leading and trailing silent blocks : No
Null samples used in CRC calculations : Yes
Used interface : Native Win32 interface for Win NT & 2000

Used output format : User Defined Encoder
Selected bitrate : 768 kBit/s
Quality : High
Add ID3 tag : No
Command line compressor : C:\Program Files (x86)\Exact Audio Copy\FLAC\FLAC.EXE
Additional command line options : -6 -V -T "ARTIST=%artist%" -T "TITLE=%title%" -T "ALBUM=%albumtitle%" -T "DATE=%year%" -T "TRACKNUMBER=%tracknr%" -T "GENRE=%genre%" -T "COMMENT=%comment%" -T "BAND=%albuminterpret%" -T "ALBUMARTIST=%albuminterpret%" -T "COMPOSER=%composer%" %haslyrics%–tag-from-file=LYRICS="%lyricsfile%"%haslyrics% -T "DISCNUMBER=%cdnumber%" -T "TOTALDISCS=%totalcds%" -T "TOTALTRACKS=%numtracks%" %hascover%–picture="%coverfile%"%hascover% %source% -o %dest%


TOC of the extracted CD

Track | Start | Length | Start sector | End sector
––––––––––––––––––––––––––––-
1 | 0:00.00 | 7:14.04 | 0 | 32553
2 | 7:14.04 | 9:04.55 | 32554 | 73408
3 | 16:18.59 | 10:18.74 | 73409 | 119832
4 | 26:37.58 | 6:50.70 | 119833 | 150652
5 | 33:28.53 | 10:18.61 | 150653 | 197063
6 | 43:47.39 | 2:42.63 | 197064 | 209276
7 | 46:30.27 | 2:27.68 | 209277 | 220369
8 | 48:58.20 | 3:10.43 | 220370 | 234662


Range status and errors

Selected range

Filename D:\Horowitz plays Liszt CD3.wav

Peak level 96.2 %
Extraction speed 3.9 X
Range quality 100.0 %
Test CRC DC4D2E68
Copy CRC DC4D2E68
Copy OK

No errors occurred


AccurateRip summary

Track 1 accurately ripped (confidence 3) [9E126F43] (AR v2)
Track 2 accurately ripped (confidence 3) [FB3F54A6] (AR v2)
Track 3 accurately ripped (confidence 3) [319663A5] (AR v2)
Track 4 accurately ripped (confidence 3) [73763350] (AR v2)
Track 5 accurately ripped (confidence 3) [C0E4EFC0] (AR v2)
Track 6 accurately ripped (confidence 3) [9D96B2DA] (AR v2)
Track 7 accurately ripped (confidence 3) [DD873AB7] (AR v2)
Track 8 accurately ripped (confidence 3) [82537D86] (AR v2)

All tracks accurately ripped

End of status report

–– CUETools DB Plugin V2.1.3

[CTDB TOCID: hmQJ4uMw2.j_PtyZ3.KA7qU3j2Y-] found, Submit result: hmQJ4uMw2.j_PtyZ3.KA7qU3j2Y- has been confirmed
[db6a757e] (2/2) Accurately ripped


==== Log checksum 657C0C685E4BB2566F9D19AF015D1A82AA6223B57DAFDCAE0F4B2784E1550E82 ====

Exact Audio Copy V1.0 beta 3 from 29. August 2011

EAC extraction logfile from 21. February 2012, 17:44

Horowitz, Vladimir / Horowitz plays Liszt 4/4

Used drive : Optiarc DVD RW AD-7260S Adapter: 2 ID: 0

Read mode : Secure
Utilize accurate stream : Yes
Defeat audio cache : Yes
Make use of C2 pointers : No

Read offset correction : 48
Overread into Lead-In and Lead-Out : No
Fill up missing offset samples with silence : Yes
Delete leading and trailing silent blocks : No
Null samples used in CRC calculations : Yes
Used interface : Native Win32 interface for Win NT & 2000

Used output format : User Defined Encoder
Selected bitrate : 768 kBit/s
Quality : High
Add ID3 tag : No
Command line compressor : C:\Program Files (x86)\Exact Audio Copy\FLAC\FLAC.EXE
Additional command line options : -6 -V -T "ARTIST=%artist%" -T "TITLE=%title%" -T "ALBUM=%albumtitle%" -T "DATE=%year%" -T "TRACKNUMBER=%tracknr%" -T "GENRE=%genre%" -T "COMMENT=%comment%" -T "BAND=%albuminterpret%" -T "ALBUMARTIST=%albuminterpret%" -T "COMPOSER=%composer%" %haslyrics%–tag-from-file=LYRICS="%lyricsfile%"%haslyrics% -T "DISCNUMBER=%cdnumber%" -T "TOTALDISCS=%totalcds%" -T "TOTALTRACKS=%numtracks%" %hascover%–picture="%coverfile%"%hascover% %source% -o %dest%


TOC of the extracted CD

Track | Start | Length | Start sector | End sector
––––––––––––––––––––––––––––-
1 | 0:00.00 | 2:21.18 | 0 | 10592
2 | 2:21.18 | 3:14.01 | 10593 | 25143
3 | 5:35.19 | 6:56.34 | 25144 | 56377
4 | 12:31.53 | 6:31.10 | 56378 | 85712
5 | 19:02.63 | 3:30.07 | 85713 | 101469
6 | 22:32.70 | 10:33.27 | 101470 | 148971
7 | 33:06.22 | 8:16.03 | 148972 | 186174
8 | 41:22.25 | 6:05.31 | 186175 | 213580
9 | 47:27.56 | 5:17.60 | 213581 | 237415
10 | 52:45.41 | 2:49.70 | 237416 | 250160


Range status and errors

Selected range

Filename D:\Horowitz plays Liszt CD4.wav

Peak level 96.7 %
Extraction speed 3.9 X
Range quality 100.0 %
Test CRC D5504BFD
Copy CRC D5504BFD
Copy OK

No errors occurred


AccurateRip summary

Track 1 cannot be verified as accurate (confidence 4) [123AC892], AccurateRip returned [9A68E330] (AR v2)
Track 2 cannot be verified as accurate (confidence 4) [44FD3F2F], AccurateRip returned [A5158533] (AR v2)
Track 3 cannot be verified as accurate (confidence 4) [B1BAEDB3], AccurateRip returned [F9E587DA] (AR v2)
Track 4 cannot be verified as accurate (confidence 4) [0AC14F91], AccurateRip returned [EB455077] (AR v2)
Track 5 cannot be verified as accurate (confidence 4) [93B6E40D], AccurateRip returned [85D57F68] (AR v2)
Track 6 cannot be verified as accurate (confidence 4) [FFE6B25F], AccurateRip returned [E7BB4D83] (AR v2)
Track 7 cannot be verified as accurate (confidence 4) [44706FCA], AccurateRip returned [EA1D42D5] (AR v2)
Track 8 cannot be verified as accurate (confidence 4) [B1E0DC8C], AccurateRip returned [E8C7A1C5] (AR v2)
Track 9 cannot be verified as accurate (confidence 4) [947B9D2F], AccurateRip returned [929A3739] (AR v2)
Track 10 cannot be verified as accurate (confidence 4) [627832EB], AccurateRip returned [8432E538] (AR v2)

No tracks could be verified as accurate
You may have a different pressing from the one(s) in the database

End of status report

–– CUETools DB Plugin V2.1.3

[CTDB TOCID: 7dR8D1m1KOXLQXUt2sL4Jyd2Teg-] found, Submit result: 7dR8D1m1KOXLQXUt2sL4Jyd2Teg- has been confirmed
[64e7215e] (2/2) Accurately ripped


==== Log checksum 6B016F6CA5A408841E1AEAA614084186E2F59D86D86EA260A9CDD566301CE7AD ====


Thanks to the original releaser
Download:

Filepost

CD 1 | CD 2 | CD 3 | CD 4
Scans

Uploaded

CD 1 | CD 2 | CD 3 | CD 4
Scans