Subcategories

Hot Snakes - Automatic Midnight (2000)

Posted By: mook45
Hot Snakes - Automatic Midnight (2000)

Hot Snakes - Automatic Midnight (2000)
EAC | FLAC IMG,CUE+LOG = 225MB | MP3@320 = 108MB | 400 dpi Scans


High octane rock'n'roll from the Rocket From The Crypt offshoot.

Track listing
1. If Credit's What Matters I'll Take Credit
2. Automatic Midnight
3. No Hands
4. Salton City
5. 10th Planet
6. Light Up The Stars
7. Our Work Fills The Pews
8. Past Lives
9. Mystery Boy
10. Apartment Zero
11. Let It Come

Exact Audio Copy V0.99 prebeta 5 from 4. May 2009

EAC extraction logfile from 26. December 2009, 22:34

Hot Snakes / Automatic Midnight

Used drive : HP DVD Writer 1040r Adapter: 1 ID: 0

Read mode : Secure
Utilize accurate stream : Yes
Defeat audio cache : Yes
Make use of C2 pointers : No

Read offset correction : 6
Overread into Lead-In and Lead-Out : No
Fill up missing offset samples with silence : Yes
Delete leading and trailing silent blocks : No
Null samples used in CRC calculations : Yes
Used interface : Native Win32 interface for Win NT & 2000

Used output format : User Defined Encoder
Selected bitrate : 1024 kBit/s
Quality : High
Add ID3 tag : No
Command line compressor : C:\Program Files\Exact Audio Copy\FLAC\FLAC.EXE
Additional command line options : -5 -V -T "ARTIST=%a" -T "TITLE=%t" -T "ALBUM=%g" -T "DATE=%y" -T "TRACKNUMBER=%n" -T "GENRE=%m" -T "COMMENT=EAC Flac 1.1.2 -5" %s


TOC of the extracted CD

Track | Start | Length | Start sector | End sector
––––––––––––––––––––––––––––-
1 | 0:00.00 | 2:32.54 | 0 | 11453
2 | 2:32.54 | 1:33.59 | 11454 | 18487
3 | 4:06.38 | 2:30.54 | 18488 | 29791
4 | 6:37.17 | 3:46.28 | 29792 | 46769
5 | 10:23.45 | 3:18.00 | 46770 | 61619
6 | 13:41.45 | 3:22.07 | 61620 | 76776
7 | 17:03.52 | 3:03.32 | 76777 | 90533
8 | 20:07.09 | 2:41.05 | 90534 | 102613
9 | 22:48.14 | 1:59.53 | 102614 | 111591
10 | 24:47.67 | 1:25.48 | 111592 | 118014
11 | 26:13.40 | 19:29.49 | 118015 | 205738


Range status and errors

Selected range

Filename C:\Users\Mike3\Desktop\Hot Snakes - Automatic Midnight (Flac)\Hot Snakes - Automatic Midnight.wav

Peak level 100.0 %
Range quality 99.9 %
Copy CRC 8EA56B13
Copy OK

No errors occurred


AccurateRip summary

Track 1 accurately ripped (confidence 7) [2C0272FE]
Track 2 accurately ripped (confidence 7) [CA3E2BB5]
Track 3 accurately ripped (confidence 7) [7D73961D]
Track 4 accurately ripped (confidence 7) [A58107DD]
Track 5 accurately ripped (confidence 7) [40652B54]
Track 6 accurately ripped (confidence 7) [E96A11FB]
Track 7 accurately ripped (confidence 7) [0A1A2A19]
Track 8 accurately ripped (confidence 7) [57F57B28]
Track 9 accurately ripped (confidence 7) [ABAFCCEA]
Track 10 accurately ripped (confidence 7) [A2769700]
Track 11 accurately ripped (confidence 7) [E0A1D103]

All tracks accurately ripped

End of status report

Files
Lame 320 Kbps = 108MB
Flac 677 Kbps = 225MB

320

http://www.filesonic.com/file/26747199/HoSnAM_3_.rar

Flac

http://www.filesonic.com/file/26747279/HoSnAM_F_.part1.rar
http://www.filesonic.com/file/26747157/HoSnAM_F_.part2.rar

320

http://www.fileserve.com/file/n9bmfq5/HoSnAM_3_.rar

Flac

http://www.fileserve.com/file/s8BUMq7/HoSnAM_F_.part1.rar
http://www.fileserve.com/file/G9yY2aS/HoSnAM_F_.part2.rar

No mirrors