Subcategories

Charlie Haden - Now Is The Hour - 1996

Posted By: mfrwiz
Charlie Haden - Now Is The Hour - 1996

Charlie Haden - Now Is The Hour - 1996
Lossless (Flac Image File + Cue + Log + Audio Identifier Report): 368 Mb | EAC Secure Mode Rip | Mp3 (Fraunhofer IIS - 320 kbps): 192 Mb | Scans | Rar Files (3% Recovery)
Audio CD (April 2, 1996) - Original Release Date: July, 1995 - Label: Verve - Number of Discs: 1 - Catalog Number: 529 827-2
Jazz

Product Description: NOW IS THE HOUR was nominated for a 1997 Grammy Award for Best Jazz Instrumental Performance, Individual Or Group. The title track was nominated for a 1997 Grammy for Best Jazz Instrumental Solo. Chralie Haden's Quartet West had been an active ensemble for a decade by the time of this release. As with the group's other works, NOW IS THE HOUR draws from a tradition in existence before Haden first burst on the scene with Ornette Coleman's groundbreaking quartet in the late '50s.

Charlie Haden - Now Is The Hour - 1996

The ensemble is joined by a string orchestra for half of the tracks, giving the music a lush and romantic sound. For "The Left Hand of God," Haden delivers the melody solo over a bed of strings, before the piano enters at the midway point. In fact, special mention should be made of the remarkable Alan Broadbent. The quartet's pianist since the outset, Broadbent shows his versatility by arranging and conducting the strings on this effort. Ernie Watt's tenor saxophone is a rich pleasure deserving much wider recognition. The set includes four originals and some fine choices in outside material, including tunes by Bud Powell, Lee Konitz, Charlie Parker, Cole Porter, and Lennie Tristano. Recording information: Studios Guillaume Tell, Suresnes, Paris, France (07/18/1995-07/20/1995).

Review: Charlie Haden and his Quartet West continue to mine the "noir jazz" genre inspired by '40s films. Seldom does modern music so perfectly evoke a time and place in history as this terrific band. Fans of Haden's Liberation Music Orchestra will find the simple accessibility either surprising or disappointing, but fans of classic, romantic jazz will find joy. ~ Tim Sheridan, All Music Guide
Charlie Haden - Now Is The Hour - 1996
Track Listing:

01 - Here's Looking At You - 6:11
02 - The Lleft Hand of God - 7:48
03 - Requiem - 1:32
04 - Back Home Blues - 4:05
05 - There In A Dream - 7:05
06 - All Through The Night - 4:14
07 - Detour Ahead - 6:06
08 - Blue Pearl - 4:32
09 - When Tomorrow Comes - 4:39
10 - Palo Alto - 4:56
11 - Marable's Parable - 3:31
12 - Now is the Hour (Haere Ra - Maori Farewell Song) - 4:59

Charlie Haden - Now Is The Hour - 1996

Personnel: Charlie Haden Quartet West: Charlie Haden (bass); Alan Broadbent (conductor, piano); Ernie Watts (tenor saxophone); Larance Marable (drums).

Additional personnel: Daniel Dato, Jocelyne Maubre, Frederic Visconte, Claire Lisiecki, Thierry Huchin, Alain Persiaux, Nathalie Carlucci, Thierry Cade, Christian Tetard, Yves Melon (violin); Jacques Borsarello, Olivier Kaspar, Olivier Grimoin, Christian Dufour (viola); Herve Derrien, Philippe Nadal, Philippe Cherond, Cyrille Lacrouts, Philippe Feret, Jean-Philippe Allard (cello); Ernie Watts (tenor saxophone); Alan Broadbent (piano); Thierry Barbe, Phillippe Noharet (double bass); Larance Marable (drums), Olivier Kaspar, Jacques Borsarello, Christian Dufour, Olivier Grimoin (viola); Cyrille Lacrouts, Jean-Philippe Audin, Philippe Cherond, Herve Derrien, Philippe Feret, Philippe Nadal (cello); Philippe Noharet, Thierry Barbe (acoustic bass).
Charlie Haden - Now Is The Hour - 1996

guaza

If you discover any dead links in any of my posts,
please send me a private message !!!!

Exact Audio Copy V0.99 prebeta 3 from 28. July 2007

EAC extraction logfile from 20. May 2009, 14:36

Charlie Haden / Now is the Hour

Used drive : PIONEER DVD-RW DVR-110D Adapter: 0 ID: 0

Read mode : Secure
Utilize accurate stream : Yes
Defeat audio cache : Yes
Make use of C2 pointers : No

Read offset correction : 48
Overread into Lead-In and Lead-Out : No
Fill up missing offset samples with silence : Yes
Delete leading and trailing silent blocks : No
Null samples used in CRC calculations : Yes
Used interface : Installed external ASPI interface

Used output format : Internal WAV Routines
Sample format : 44.100 Hz; 16 Bit; Stereo


TOC of the extracted CD

Track | Start | Length | Start sector | End sector
––––––––––––––––––––––––––––-
1 | 0:00.32 | 6:11.25 | 32 | 27881
2 | 6:11.57 | 7:48.00 | 27882 | 62981
3 | 13:59.57 | 1:31.63 | 62982 | 69869
4 | 15:31.45 | 4:04.50 | 69870 | 88219
5 | 19:36.20 | 7:05.12 | 88220 | 120106
6 | 26:41.32 | 4:13.63 | 120107 | 139144
7 | 30:55.20 | 6:06.00 | 139145 | 166594
8 | 37:01.20 | 4:32.25 | 166595 | 187019
9 | 41:33.45 | 4:38.50 | 187020 | 207919
10 | 46:12.20 | 4:56.12 | 207920 | 230131
11 | 51:08.32 | 3:31.25 | 230132 | 245981
12 | 54:39.57 | 4:58.50 | 245982 | 268381


Range status and errors

Selected range

Filename D:\HQ\Charlie Haden - Now is the Hour.wav

Peak level 96.3 %
Range quality 100.0 %
Copy CRC C6DB8A2E
Copy OK

No errors occurred

End of status