Subcategories

House Of Lords - House Of Lords (1988)

Posted By: Andi_Deris
House Of Lords - House Of Lords (1988)

House Of Lords - House Of Lords (1988)
EAC Rip | FLAC: Image+Cue+Log | 335 Mb | MP3 CBR 320 kbps | 124 Mb | Scans | 55 Mb | Time: 44:29
Genre: Hard Rock, AOR, Glam/Hair Metal | Label: Monsters of Rock Records | Cat.#: MOFR 0295

House of Lords is the eponymous debut album by House of Lords, a Giuffria spin-off band, featuring keyboardist Gregg Giuffria. It was released in 1988 on Kiss bassist Gene Simmons' own label and distributed by RCA Records. The album reached position No. 78 in The Billboard 200 Chart on February 25, 1989.



House Of Lords - House Of Lords (1988)


Track Listing

01. Pleasure Palace (6:21)
02. Wanna Be Loved (3:22)
03. Edge Of Your Life (5:19)
04. Lookin' For Strange (4:03)
05. Love Don't Lie (4:19)
06. Slip Of The Tongue (3:30)
07. Hearts Of The World (4:17)
08. Under Blue Skies (4:36)
09. Call My Name (4:04)
10. Jealous Heart (4:38)

Produced by Andy Johns and Gregg Giuffria
Executive Producer: Gene Simmons

The Band

• James Christian - lead vocals
• Gregg Giuffria - keyboards
• Lanny Cordola - guitars
• Chuck Wright - bass
• Ken Mary - drums, percussion

Additional personnel

• Jeff Scott Soto - backing vocals

Notes

℗ & © 1988 Simmons Records
℗ 2002 Monsters of Rock Records

House Of Lords - House Of Lords (1988)


Exact Audio Copy V0.99 prebeta 4 from 23. January 2008

Отчёт EAC об извлечении, выполненном 2. апреля 2009, 17:29

House Of Lords / House Of Lords

Дисковод: Optiarc DVD RW AD-7191A Adapter: 1 ID: 1

Режим чтения : Достоверность
Использование точного потока : Да
Отключение кэша аудио : Да
Использование указателей C2 : Нет

Коррекция смещения при чтении : 6
Способность читать области Lead-in и Lead-out : Нет
Заполнение пропущенных сэмплов тишиной : Да
Удаление блоков с тишиной в начале и конце : Нет
При вычислениях CRC использовались нулевые сэмплы : Да
Интерфейс : Установленный внешний ASPI-интерфейс

Выходной формат : Внутренние WAV-операции
Формат сэмплов : 44.100 Гц; 16 бит; стерео


TOC извлечённого CD

Трек | Старт | Длительность | Начальный сектор | Конечный сектор
––––––––––––––––––––––––––––––––––-
1 | 0:00.00 | 6:21.35 | 0 | 28609
2 | 6:21.35 | 3:22.20 | 28610 | 43779
3 | 9:43.55 | 5:19.55 | 43780 | 67759
4 | 15:03.35 | 4:03.67 | 67760 | 86051
5 | 19:07.27 | 4:19.28 | 86052 | 105504
6 | 23:26.55 | 3:30.12 | 105505 | 121266
7 | 26:56.67 | 4:17.00 | 121267 | 140541
8 | 31:13.67 | 4:36.23 | 140542 | 161264
9 | 35:50.15 | 4:04.62 | 161265 | 179626
10 | 39:55.02 | 4:38.23 | 179627 | 200499


Характеристики диапазона извлечения и сообщения об ошибках

Выбранный диапазон

Имя файла D:\House Of Lords\1988 House Of Lords\House Of Lords - House Of Lords.wav

Пиковый уровень 96.0 %
Качество диапазона 100.0 %
CRC копии FB10F69E
Копирование… OK

Ошибок не произошло

Конец отчёта


Many thanks to the original uploader: ice_80