VA - Hallmark presents The Tradition Of Christmas: A Collection Of Timeless Christmas Music (1991)

Posted By: TestTickles
VA - Hallmark presents The Tradition Of Christmas: A Collection Of Timeless Christmas Music  (1991)

VA - Hallmark presents The Tradition Of Christmas: A Collection Of Timeless Christmas Music (1991)
EAC Rip | FLAC with CUE and log | scans | 239 mb
MP3 CBR 320kbps | RAR | 103 mb
Genre: Christmas, holidays, pop, vocal jazz

Hallmark presents The Tradition Of Christmas: A Collection Of Timeless Christmas Music is a 1991 compilation album released by the company responsible for greeting cards. These Christmas recordings are exclusive to this release.

VA - Hallmark presents The Tradition Of Christmas: A Collection Of Timeless Christmas Music  (1991)

01. Harry Belafonte - Mary's Little Boy Child
02. Jennifer Warnes - O Little Town Of Bethlehem
03. American Boychoir - Joy To The World
04. Harry Belafonte - The First Noel
05. American Boychoir - We'll Sing You A Christmastime
06. Harry Belafonte - I Heard The Bells On Christmas Day
07. American Boychoir - Deck The Halls
08. Harry Belafonte - What Child Is This
09. Jennifer Warnes - God Rest Ye Merry, Gentlemen
10. Harry Belafonte - The Baby Boy
11. Jennifer Warnes - I'll Be Home For Christmas
12. American Boychoir - The Twelve Days Of Christmas

Dick Carter-Executive producer
Fred Salem-music supervisor
Oscar Castro-Neves-Arranger/producer for Mr. Belafonte
Steve Barber & Bill Gunn-Arranger/producer for Ms. Warnes
Don Bagley-Arranger/producer for American Boychoir
Don Murray & David Belafonte-mixers

Exact Audio Copy V1.1 from 23. June 2015

EAC extraction logfile from 1. November 2016, 13:57

Various Artists / Hallmark presents The Tradition Of Christmas: A Collection Of Timeless Christmas Music

Used drive : TEAC DVD-ROM DV-28SW Adapter: 1 ID: 0

Read mode : Secure
Utilize accurate stream : Yes
Defeat audio cache : Yes
Make use of C2 pointers : No

Read offset correction : 6
Overread into Lead-In and Lead-Out : No
Fill up missing offset samples with silence : Yes
Delete leading and trailing silent blocks : No
Null samples used in CRC calculations : Yes
Used interface : Native Win32 interface for Win NT & 2000
Gap handling : Appended to previous track

Used output format : Internal WAV Routines
Sample format : 44.100 Hz; 16 Bit; Stereo


TOC of the extracted CD

Track | Start | Length | Start sector | End sector
––––––––––––––––––––––––––––-
1 | 0:00.00 | 4:30.67 | 0 | 20316
2 | 4:30.67 | 3:44.45 | 20317 | 37161
3 | 8:15.37 | 2:28.13 | 37162 | 48274
4 | 10:43.50 | 4:08.15 | 48275 | 66889
5 | 14:51.65 | 4:15.50 | 66890 | 86064
6 | 19:07.40 | 3:32.32 | 86065 | 101996
7 | 22:39.72 | 2:40.55 | 101997 | 114051
8 | 25:20.52 | 2:42.30 | 114052 | 126231
9 | 28:03.07 | 5:48.55 | 126232 | 152386
10 | 33:51.62 | 3:28.28 | 152387 | 168014
11 | 37:20.15 | 2:45.25 | 168015 | 180414
12 | 40:05.40 | 4:44.05 | 180415 | 201719


Track 1

Filename C:\My Documents\My FLAC\VA - Hallmark presents The Tradition Of Christmas (1991) [FLAC]\01 - Harry Belafonte - Mary's Little Boy Child.wav

Pre-gap length 0:00:02.00

Peak level 94.7 %
Extraction speed 1.9 X
Track quality 99.9 %
Test CRC 9D1B591E
Copy CRC 9D1B591E
Accurately ripped (confidence 11) [37F2BAE2] (AR v2)
Copy OK

Track 2

Filename C:\My Documents\My FLAC\VA - Hallmark presents The Tradition Of Christmas (1991) [FLAC]\02 - Jennifer Warnes - O Little Town Of Bethlehem.wav

Pre-gap length 0:00:00.67

Peak level 94.8 %
Extraction speed 3.0 X
Track quality 100.0 %
Test CRC 4C01D884
Copy CRC 4C01D884
Accurately ripped (confidence 12) [56FE3E37] (AR v2)
Copy OK

Track 3

Filename C:\My Documents\My FLAC\VA - Hallmark presents The Tradition Of Christmas (1991) [FLAC]\03 - American Boychoir - Joy To The World.wav

Pre-gap length 0:00:00.07

Peak level 80.0 %
Extraction speed 2.8 X
Track quality 100.0 %
Test CRC 4DF9B9E2
Copy CRC 4DF9B9E2
Accurately ripped (confidence 11) [EBD439C7] (AR v2)
Copy OK

Track 4

Filename C:\My Documents\My FLAC\VA - Hallmark presents The Tradition Of Christmas (1991) [FLAC]\04 - Harry Belafonte - The First Noel.wav

Pre-gap length 0:00:00.50

Peak level 92.5 %
Extraction speed 3.4 X
Track quality 100.0 %
Test CRC C1548E8B
Copy CRC C1548E8B
Accurately ripped (confidence 12) [68947E9C] (AR v2)
Copy OK

Track 5

Filename C:\My Documents\My FLAC\VA - Hallmark presents The Tradition Of Christmas (1991) [FLAC]\05 - American Boychoir - We'll Sing You A Christmastime.wav

Pre-gap length 0:00:00.50

Peak level 96.4 %
Extraction speed 3.6 X
Track quality 100.0 %
Test CRC 0F160965
Copy CRC 0F160965
Accurately ripped (confidence 12) [AA4098E5] (AR v2)
Copy OK

Track 6

Filename C:\My Documents\My FLAC\VA - Hallmark presents The Tradition Of Christmas (1991) [FLAC]\06 - Harry Belafonte - I Heard The Bells On Christmas Day.wav

Pre-gap length 0:00:01.08

Peak level 90.3 %
Extraction speed 3.6 X
Track quality 100.0 %
Test CRC F7ED42A2
Copy CRC F7ED42A2
Accurately ripped (confidence 11) [E62237FB] (AR v2)
Copy OK

Track 7

Filename C:\My Documents\My FLAC\VA - Hallmark presents The Tradition Of Christmas (1991) [FLAC]\07 - American Boychoir - Deck The Halls.wav

Pre-gap length 0:00:00.65

Peak level 92.0 %
Extraction speed 3.7 X
Track quality 100.0 %
Test CRC 7D4BE3CB
Copy CRC 7D4BE3CB
Accurately ripped (confidence 12) [1436F1DF] (AR v2)
Copy OK

Track 8

Filename C:\My Documents\My FLAC\VA - Hallmark presents The Tradition Of Christmas (1991) [FLAC]\08 - Harry Belafonte - What Child Is This.wav

Pre-gap length 0:00:00.20

Peak level 97.7 %
Extraction speed 3.7 X
Track quality 100.0 %
Test CRC 63B86A69
Copy CRC 63B86A69
Accurately ripped (confidence 12) [19848024] (AR v2)
Copy OK

Track 9

Filename C:\My Documents\My FLAC\VA - Hallmark presents The Tradition Of Christmas (1991) [FLAC]\09 - Jennifer Warnes - God Rest Ye Merry, Gentlemen.wav

Pre-gap length 0:00:00.62

Peak level 99.9 %
Extraction speed 4.1 X
Track quality 100.0 %
Test CRC 7EE7BA56
Copy CRC 7EE7BA56
Accurately ripped (confidence 12) [9E1C9ED9] (AR v2)
Copy OK

Track 10

Filename C:\My Documents\My FLAC\VA - Hallmark presents The Tradition Of Christmas (1991) [FLAC]\10 - Harry Belafonte - The Baby Boy.wav

Pre-gap length 0:00:00.45

Peak level 99.9 %
Extraction speed 3.8 X
Track quality 100.0 %
Test CRC C192950F
Copy CRC C192950F
Accurately ripped (confidence 12) [85B608C8] (AR v2)
Copy OK

Track 11

Filename C:\My Documents\My FLAC\VA - Hallmark presents The Tradition Of Christmas (1991) [FLAC]\11 - Jennifer Warnes - I'll Be Home For Christmas.wav

Pre-gap length 0:00:01.13

Peak level 69.9 %
Extraction speed 2.4 X
Track quality 99.9 %
Test CRC 14918536
Copy CRC 14918536
Accurately ripped (confidence 12) [8A3A208B] (AR v2)
Copy OK

Track 12

Filename C:\My Documents\My FLAC\VA - Hallmark presents The Tradition Of Christmas (1991) [FLAC]\12 - American Boychoir - The Twelve Days Of Christmas.wav

Pre-gap length 0:00:00.55

Peak level 99.0 %
Extraction speed 4.2 X
Track quality 100.0 %
Test CRC 5826F600
Copy CRC 5826F600
Accurately ripped (confidence 12) [8D135E80] (AR v2)
Copy OK


All tracks accurately ripped

No errors occurred

End of status report

–– CUETools DB Plugin V2.1.6

[CTDB TOCID: HiD.4hCVgzMIZEJnNa6dOJk2n7I-] found
Submit result: HiD.4hCVgzMIZEJnNa6dOJk2n7I- has been confirmed
Track | CTDB Status
1 | (13/13) Accurately ripped
2 | (13/13) Accurately ripped
3 | (13/13) Accurately ripped
4 | (13/13) Accurately ripped
5 | (12/13) Accurately ripped
6 | (13/13) Accurately ripped
7 | (12/13) Accurately ripped
8 | (12/13) Accurately ripped
9 | (13/13) Accurately ripped
10 | (13/13) Accurately ripped
11 | (13/13) Accurately ripped
12 | (12/13) Accurately ripped


==== Log checksum FF2E23DA272D349F70D168FA3A37389A5A1D5E5AB47CEA59E93B9F8C696AA682 ====


VA - Hallmark presents The Tradition Of Christmas: A Collection Of Timeless Christmas Music  (1991)
NITROFLARE (FLAC)
NITROFLARE (MP3)