Tags
Language
Tags

Huelgas Ensemble, Paul van Nevel - Costanzo Festa: La Spagna - 32 Contrapunti (2003)

Posted By: tirexiss
Huelgas Ensemble, Paul van Nevel - Costanzo Festa: La Spagna - 32 Contrapunti (2003)

Huelgas Ensemble, Paul van Nevel - Costanzo Festa: La Spagna - 32 Contrapunti (2003)
EAC | FLAC (image+.cue, log) | Covers Included | 52:08 | 270 MB
Genre: Classical | Label: Harmonia Mundi | Catalog: HMC 801799

The cycle of 125 variations that Costanzo Festa composed on the famous melody called La Spagna is conceived on a scale unique during the Renaissance, and may justly be described as a compositional tour-de-force. It has been comparisons to works such as Johann Sebastian Bach's Goldberg Variations. This budget priced reissue, released for the first time in 2003, features a selection of these variations performed by the Huelgas-Ensemble.

Huelgas Ensemble, Paul van Nevel - Costanzo Festa: La Spagna - 32 Contrapunti (2003)

Track List:

1 Contrapunto 46 à 4 - Première et deuxième voix basées sur ré-mi-fa-sol
2 Contrapunto 41 à 4 - Contrepoint libre, la structure harmonique est plus particulièrement mise en évidence
3 Contrapunto 105 à 5 - La voix supérieure repose sur le motif la-sol-mi-fa-sol-la, avec une variation rythmique
4 Contrapunto 101 à 4 - La deuxième voix paraphrase le madrigal "Ahi dispietato tempo"
5 Contrapunto 88 à 4 - Chacune des voix est associée à une valeur rythmique
6 Contrapunto 76 à 4 - La deuxième voix repose exclusivement sur le motif ut-ré-mi et fa-sol-la, avec une variation rythmique
7 Contrapunto 124 à 8 - Contrepoint en imitation
8 Contrapunto 81 à 4 - Canon en unisson à la deuxième voix inférieure
9 Contrapunto 60 à 4 - Contrepoint en imitation dans le grave
10 Contrapunto 77 à 4 - Contrepoint coloré en imitation
11 Contrapunto 122 à 7 - La première voix reprend exclusivement un la
12 Contrapunto 25 à 4 - Contrepoint en imitation
13 Contrapunto 118 à 5
14 Contrapunto 47 à 4 - Motif en ostinato sur sol-sol-sol-mi-fa-sol aux autres voix
15 Contrapunto 35 à 4 - Contrepoint en imitation
16 Contrapunto 40 à 4 - A quatre voix égales
17 Contrapunto 8 à 3
18 Contrapunto 14 à 3 - En mesure ternaire
19 Contrapunto 108 à 5 - Contrepoint très lent constitué d'un canon double
20 Contrapunto 9 à 3 - Contrepoint ornementé en imitation
21 Contrapunto 85 à 4 - Contrepoint libre avec des syncopatio particulièrement nombreaux
22 Contrapunto 37 à 4 - Première voix en ostinatio
23 Contrapunto 70 à 4
24 Contrapunto 125 à 11 - La dernière variation du manuscrit
25 Contrapunto 71 à 4 - Canon inversé entre la première et la quatrième voix
26 Contrapunto 117 à 5
27 Contrapunto 28 à 4 - Ostinato à la basse
28 Contrapunto 104 à 5 - Première et quatrième voix en soggetto cavato
29 Contrapunto 58 à 4 - Contrepoint en imitation dans le grave
30 Contrapunto 121 à 6 - La plus longue variation de toutes; chaque note du cantus firmus dure trois brevis
31 Contrapunto 123 à 8 - Canon triple, souvent à l'unisson
32 Contrapunto 34 à 4 - Première voix sur la-sol-fa en ostinato

Performers:
Huelgas Ensemble
Conductor: Paul van Nevel

Bart Coen Peter de Ciercq, Baldrick Deerenberg, Koen Dieltiens (recorders);
Beátrice Delpierre, Mirella Ruigrok, Michéle Van den Broucque (dulcians);
Björk Frithof Smith (cornett);
Wim Becu, Dominique Lortie, Joost Swinkels, Simen Van Mechelen (sackbutts);
An Van Laetham (Renaissance violin);
Kristina Kyprianides, Piet Strijckers, Paulina Van Laarhoven (viols);
Matthieu Lusson (violone).

Exact Audio Copy V1.3 from 2. September 2016

EAC extraction logfile from 11. May 2017, 13:31

Costanzo Festa; Huelgas Ensemble, Paul Van Nevel / La Spagna - 32 Contrapunti

Used drive : HL-DT-STBD-RE BH10LS30 Adapter: 1 ID: 0

Read mode : Secure
Utilize accurate stream : Yes
Defeat audio cache : Yes
Make use of C2 pointers : No

Read offset correction : 667
Overread into Lead-In and Lead-Out : No
Fill up missing offset samples with silence : Yes
Delete leading and trailing silent blocks : No
Null samples used in CRC calculations : Yes
Used interface : Native Win32 interface for Win NT & 2000

Used output format : User Defined Encoder
Selected bitrate : 768 kBit/s
Quality : High
Add ID3 tag : No
Command line compressor : C:\Program Files (x86)\Exact Audio Copy\FLAC\FLAC.EXE
Additional command line options : -6 -V -T "ARTIST=%artist%" -T "TITLE=%title%" -T "ALBUM=%albumtitle%" -T "DATE=%year%" -T "TRACKNUMBER=%tracknr%" -T "GENRE=%genre%" -T "COMMENT=%comment%" -T "BAND=%albuminterpret%" -T "ALBUMARTIST=%albuminterpret%" -T "COMPOSER=%composer%" %haslyrics%–tag-from-file=LYRICS="%lyricsfile%"%haslyrics% -T "DISCNUMBER=%cdnumber%" -T "TOTALDISCS=%totalcds%" -T "TOTALTRACKS=%numtracks%" %hascover%–picture="%coverfile%"%hascover% %source% -o %dest%


TOC of the extracted CD

Track | Start | Length | Start sector | End sector
––––––––––––––––––––––––––––-
1 | 0:00.00 | 1:46.40 | 0 | 7989
2 | 1:46.40 | 1:55.41 | 7990 | 16655
3 | 3:42.06 | 1:38.42 | 16656 | 24047
4 | 5:20.48 | 1:31.20 | 24048 | 30892
5 | 6:51.68 | 0:54.14 | 30893 | 34956
6 | 7:46.07 | 1:39.57 | 34957 | 42438
7 | 9:25.64 | 1:32.27 | 42439 | 49365
8 | 10:58.16 | 0:59.10 | 49366 | 53800
9 | 11:57.26 | 1:22.43 | 53801 | 59993
10 | 13:19.69 | 1:07.18 | 59994 | 65036
11 | 14:27.12 | 1:30.24 | 65037 | 71810
12 | 15:57.36 | 1:57.56 | 71811 | 80641
13 | 17:55.17 | 2:34.74 | 80642 | 92265
14 | 20:30.16 | 0:50.48 | 92266 | 96063
15 | 21:20.64 | 1:00.56 | 96064 | 100619
16 | 22:21.45 | 1:30.68 | 100620 | 107437
17 | 23:52.38 | 1:37.45 | 107438 | 114757
18 | 25:30.08 | 1:20.02 | 114758 | 120759
19 | 26:50.10 | 2:06.30 | 120760 | 130239
20 | 28:56.40 | 1:21.60 | 130240 | 136374
21 | 30:18.25 | 1:24.41 | 136375 | 142715
22 | 31:42.66 | 1:29.40 | 142716 | 149430
23 | 33:12.31 | 1:53.56 | 149431 | 157961
24 | 35:06.12 | 1:41.25 | 157962 | 165561
25 | 36:47.37 | 2:12.43 | 165562 | 175504
26 | 39:00.05 | 2:58.16 | 175505 | 188870
27 | 41:58.21 | 0:56.45 | 188871 | 193115
28 | 42:54.66 | 1:04.51 | 193116 | 197966
29 | 43:59.42 | 1:14.53 | 197967 | 203569
30 | 45:14.20 | 3:47.36 | 203570 | 220630
31 | 49:01.56 | 1:30.20 | 220631 | 227400
32 | 50:32.01 | 1:52.71 | 227401 | 235871


Range status and errors

Selected range

Filename K:\Festa - La Spagna - van Nevel\Costanzo Festa; Huelgas Ensemble, Paul Van Nevel - La Spagna - 32 Contrapunti.wav

Peak level 90.1 %
Extraction speed 2.1 X
Range quality 100.0 %
Copy CRC 973D0769
Copy OK

No errors occurred


AccurateRip summary

Track 1 accurately ripped (confidence 12) [2EA68940] (AR v2)
Track 2 accurately ripped (confidence 11) [06F49177] (AR v2)
Track 3 accurately ripped (confidence 11) [CE116DB0] (AR v2)
Track 4 accurately ripped (confidence 11) [08A3804A] (AR v2)
Track 5 accurately ripped (confidence 11) [B5FB7D48] (AR v2)
Track 6 accurately ripped (confidence 11) [6A2D76CB] (AR v2)
Track 7 accurately ripped (confidence 11) [55224B60] (AR v2)
Track 8 accurately ripped (confidence 11) [344BFD02] (AR v2)
Track 9 accurately ripped (confidence 11) [A6394B68] (AR v2)
Track 10 accurately ripped (confidence 11) [D6262632] (AR v2)
Track 11 accurately ripped (confidence 11) [15F808F8] (AR v2)
Track 12 accurately ripped (confidence 11) [FF3A39AE] (AR v2)
Track 13 accurately ripped (confidence 11) [D7DBB10E] (AR v2)
Track 14 accurately ripped (confidence 11) [8D95445A] (AR v2)
Track 15 accurately ripped (confidence 11) [1B41F328] (AR v2)
Track 16 accurately ripped (confidence 11) [54D8C68F] (AR v2)
Track 17 accurately ripped (confidence 11) [53A418C5] (AR v2)
Track 18 accurately ripped (confidence 11) [8A690E0A] (AR v2)
Track 19 accurately ripped (confidence 11) [8156B5B3] (AR v2)
Track 20 accurately ripped (confidence 11) [C4EEE62C] (AR v2)
Track 21 accurately ripped (confidence 11) [0DAB2738] (AR v2)
Track 22 accurately ripped (confidence 11) [8E3A4238] (AR v2)
Track 23 accurately ripped (confidence 11) [5C1C921E] (AR v2)
Track 24 accurately ripped (confidence 11) [F9E7DEED] (AR v2)
Track 25 accurately ripped (confidence 11) [628F3B87] (AR v2)
Track 26 accurately ripped (confidence 11) [394F3280] (AR v2)
Track 27 accurately ripped (confidence 11) [DB01B4C2] (AR v2)
Track 28 accurately ripped (confidence 11) [4F1CD91C] (AR v2)
Track 29 accurately ripped (confidence 11) [473FD9F1] (AR v2)
Track 30 accurately ripped (confidence 11) [6D5AF007] (AR v2)
Track 31 accurately ripped (confidence 11) [A5F5E0DE] (AR v2)
Track 32 accurately ripped (confidence 11) [4B85E41B] (AR v2)

All tracks accurately ripped

End of status report

–– CUETools DB Plugin V2.1.6

[CTDB TOCID: xBrIEIATaU_OHNQ.BRtkt4drIto-] found
Submit result: already submitted
Track | CTDB Status
1 | (15/15) Accurately ripped
2 | (15/15) Accurately ripped
3 | (15/15) Accurately ripped
4 | (15/15) Accurately ripped
5 | (15/15) Accurately ripped
6 | (15/15) Accurately ripped
7 | (15/15) Accurately ripped
8 | (15/15) Accurately ripped
9 | (15/15) Accurately ripped
10 | (15/15) Accurately ripped
11 | (15/15) Accurately ripped
12 | (15/15) Accurately ripped
13 | (15/15) Accurately ripped
14 | (15/15) Accurately ripped
15 | (15/15) Accurately ripped
16 | (15/15) Accurately ripped
17 | (15/15) Accurately ripped
18 | (15/15) Accurately ripped
19 | (15/15) Accurately ripped
20 | (15/15) Accurately ripped
21 | (15/15) Accurately ripped
22 | (15/15) Accurately ripped
23 | (15/15) Accurately ripped
24 | (15/15) Accurately ripped
25 | (15/15) Accurately ripped
26 | (15/15) Accurately ripped
27 | (15/15) Accurately ripped
28 | (15/15) Accurately ripped
29 | (15/15) Accurately ripped
30 | (15/15) Accurately ripped
31 | (15/15) Accurately ripped
32 | (15/15) Accurately ripped

[CUETools log; Date: 12.05.2017 13:38:43; Version: 2.1.5]
[CTDB TOCID: xBrIEIATaU_OHNQ.BRtkt4drIto-] found.
Track | CTDB Status
1 | (15/15) Accurately ripped
2 | (15/15) Accurately ripped
3 | (15/15) Accurately ripped
4 | (15/15) Accurately ripped
5 | (15/15) Accurately ripped
6 | (15/15) Accurately ripped
7 | (15/15) Accurately ripped
8 | (15/15) Accurately ripped
9 | (15/15) Accurately ripped
10 | (15/15) Accurately ripped
11 | (15/15) Accurately ripped
12 | (15/15) Accurately ripped
13 | (15/15) Accurately ripped
14 | (15/15) Accurately ripped
15 | (15/15) Accurately ripped
16 | (15/15) Accurately ripped
17 | (15/15) Accurately ripped
18 | (15/15) Accurately ripped
19 | (15/15) Accurately ripped
20 | (15/15) Accurately ripped
21 | (15/15) Accurately ripped
22 | (15/15) Accurately ripped
23 | (15/15) Accurately ripped
24 | (15/15) Accurately ripped
25 | (15/15) Accurately ripped
26 | (15/15) Accurately ripped
27 | (15/15) Accurately ripped
28 | (15/15) Accurately ripped
29 | (15/15) Accurately ripped
30 | (15/15) Accurately ripped
31 | (15/15) Accurately ripped
32 | (15/15) Accurately ripped
[AccurateRip ID: 003860a7-050590b2-a70c4820] found.
Track [ CRC | V2 ] Status
01 [d4a53785|2ea68940] (13+12/28) Accurately ripped
02 [33d16300|06f49177] (13+11/27) Accurately ripped
03 [7d8a5fd9|ce116db0] (13+11/27) Accurately ripped
04 [8af428da|08a3804a] (13+11/27) Accurately ripped
05 [1187b599|b5fb7d48] (13+11/27) Accurately ripped
06 [c19b1e2d|6a2d76cb] (13+11/27) Accurately ripped
07 [709e9b01|55224b60] (13+11/27) Accurately ripped
08 [f7b2b466|344bfd02] (13+11/27) Accurately ripped
09 [4fc8c7fe|a6394b68] (13+11/27) Accurately ripped
10 [04c5f094|d6262632] (13+11/27) Accurately ripped
11 [352f7b53|15f808f8] (13+11/27) Accurately ripped
12 [060ae5f2|ff3a39ae] (13+11/27) Accurately ripped
13 [3bcfc978|d7dbb10e] (13+11/27) Accurately ripped
14 [5d5c4805|8d95445a] (13+11/27) Accurately ripped
15 [4624a07b|1b41f328] (13+11/27) Accurately ripped
16 [c48ac88d|54d8c68f] (13+11/27) Accurately ripped
17 [0041b300|53a418c5] (13+11/27) Accurately ripped
18 [ff9707ed|8a690e0a] (13+11/27) Accurately ripped
19 [7ca79d87|8156b5b3] (13+11/27) Accurately ripped
20 [8c325bcb|c4eee62c] (12+11/26) Accurately ripped
21 [697a7ea8|0dab2738] (13+11/27) Accurately ripped
22 [cea67a21|8e3a4238] (13+11/27) Accurately ripped
23 [ffc1c2c2|5c1c921e] (13+11/27) Accurately ripped
24 [1f8247e0|f9e7deed] (13+11/27) Accurately ripped
25 [2b640211|628f3b87] (13+11/27) Accurately ripped
26 [faa8c814|394f3280] (13+11/27) Accurately ripped
27 [1fd51868|db01b4c2] (13+11/27) Accurately ripped
28 [bb1793ef|4f1cd91c] (13+11/27) Accurately ripped
29 [e33c2109|473fd9f1] (13+11/27) Accurately ripped
30 [785e7e7e|6d5af007] (13+11/27) Accurately ripped
31 [cdf3fa1e|a5f5e0de] (13+11/27) Accurately ripped
32 [0cdeef62|4b85e41b] (13+11/27) Accurately ripped
Offsetted by 6:
01 [f244ff93] (00/28) No match (V2 was not tested)
02 [26f638a4] (00/27) No match (V2 was not tested)
03 [95c4858b] (00/27) No match (V2 was not tested)
04 [b02f9ab6] (00/27) No match (V2 was not tested)
05 [c2a79c25] (00/27) No match (V2 was not tested)
06 [dc6c4fc9] (00/27) No match (V2 was not tested)
07 [861214a5] (00/27) No match (V2 was not tested)
08 [03ccaa75] (00/27) No match (V2 was not tested)
09 [9630341e] (00/27) No match (V2 was not tested)
10 [2b03274b] (00/27) No match (V2 was not tested)
11 [cb2bd035] (00/27) No match (V2 was not tested)
12 [f3006f9a] (00/27) No match (V2 was not tested)
13 [2cf9bec0] (00/27) No match (V2 was not tested)
14 [f6240f28] (00/27) No match (V2 was not tested)
15 [19bf4adf] (00/27) No match (V2 was not tested)
16 [202092c5] (00/27) No match (V2 was not tested)
17 [8579da1f] (00/27) No match (V2 was not tested)
18 [f13073e1] (00/27) No match (V2 was not tested)
19 [4b85eaf0] (00/27) No match (V2 was not tested)
20 [a87563f9] (00/26) No match (V2 was not tested)
21 [13eb264e] (00/27) No match (V2 was not tested)
22 [f9216b82] (00/27) No match (V2 was not tested)
23 [35d8a8fe] (00/27) No match (V2 was not tested)
24 [66c207f3] (00/27) No match (V2 was not tested)
25 [1e031f34] (00/27) No match (V2 was not tested)
26 [f69fa81b] (00/27) No match (V2 was not tested)
27 [0a986f1a] (00/27) No match (V2 was not tested)
28 [f3d2ccfa] (00/27) No match (V2 was not tested)
29 [ba97c88b] (00/27) No match (V2 was not tested)
30 [e2e0114b] (00/27) No match (V2 was not tested)
31 [17936a14] (00/27) No match (V2 was not tested)
32 [1d20c2cf] (00/27) No match (V2 was not tested)

Track Peak [ CRC32 ] [W/O NULL] [ LOG ]
– 90,1 [973D0769] [BAB85776] CRC32
01 22,9 [F56F4D21] [F223C887]
02 20,5 [21FAC1D5] [44A944AF]
03 66,2 [0A358893] [3CA8B8D3]
04 50,2 [074E419B] [21ED04D2]
05 84,1 [5FA7441E] [A04933EC]
06 33,8 [64F02D8B] [48CEE318]
07 74,2 [98901468] [856982EA]
08 62,9 [7F1720A2] [55E1DE6E]
09 47,1 [5D963B7B] [8821CCBF]
10 31,6 [E34202E1] [E33400C9]
11 78,7 [376D2852] [581737FF]
12 57,9 [9D985292] [BF811BDD]
13 78,3 [70DF3D22] [7DAAC91F]
14 45,8 [C24360C7] [3425E52B]
15 26,0 [DDC8E4BD] [B4CCEF3D]
16 21,5 [0FAF5A8B] [5FEED797]
17 32,1 [DF31585F] [286B396E]
18 51,2 [FA5F91A1] [23CA8F0F]
19 28,3 [679CCFCD] [15E98CB2]
20 39,9 [03AF0DDB] [CBFD6541]

Thanks to the Original ripper (unknown)!

Download: