Subcategories

Huey Lewis & The News - Greatest Hits (2006)

Posted By: popsakov
Huey Lewis & The News - Greatest Hits (2006)

Huey Lewis & The News - Greatest Hits (2006)
EAC Rip | FLAC (Img) + Cue + Log ~ 591 Mb | MP3 CBR320 ~ 191 Mb
Full Scans (PNG, 400 dpi) ~ 206 Mb | RAR 5% Recovery
Pop Rock | Capitol Records #09463-62996-2-4

There have been many Huey Lewis & the News hits compilations released overseas, but 2006's simply named Greatest Hits is only the second U.S. comp, following Time Flies, which appeared a decade earlier. At a generous 21 tracks, Greatest Hits is not only five songs longer than Time Flies, but it's a better-chosen collection, too. It may be missing "Bad Is Bad," but it has a stronger selection of early songs, like the wonderful "Hope You Love Me Like You Say You Do," plus a better selection of latter-day songs, including Huey's duet with Gwyneth Paltrow on Smokey Robinson's "Cruisin'." That doesn't mean the disc is perfect, however – although this does have a stronger representation of their earlier material, it could use just a little bit more, and the non-chronological sequencing is a bit of a headache. That said, this has all the hits and no weak songs, making it the best Huey Lewis & the News compilation yet.
~ Stephen Thomas Erlewine, All Music

***************

Huey Lewis & The News - Greatest Hits (2006)

Track List:

01. The heart of Rock & Roll [4:06]
02. I want a new drug [3:32]
03. The power of love [3:54]
04. Jacob's ladder [3:29]
05. Stuck with you [4:27]
06. Doing it all for my baby [3:40]
07. If this is it [3:52]
08. Do you believe in love [3:28]
09. Heart and soul [4:11]
10. Back in time [4:19]
11. Perfect world [4:07]
12. I know what I like [3:52]
13. Trouble in paradise (Live in San Francisco, CA, 2-21-85) [4:27]
14. It's alright [3:03]
15. Cruisin' (with Gwyneth Paltrow) [3:34]
16. Hope you love me like you say you do [3:45]
17. Small world (feat. Stan Getz) [4:42]
18. But it's alright [2:53]
19. Hip to be square [4:01]
20. Couple days off [3:17]
21. Workin' for a livin' [2:38]

Exact Audio Copy V1.0 beta 3 from 29. August 2011

EAC extraction logfile from 10. February 2018, 18:40

Huey Lewis And The News / Greatest Hits: Huey Lewis & The News

Used drive : PIONEER BD-RW BDR-TD03 Adapter: 0 ID: 1

Read mode : Secure
Utilize accurate stream : Yes
Defeat audio cache : Yes
Make use of C2 pointers : No

Read offset correction : 667
Overread into Lead-In and Lead-Out : No
Fill up missing offset samples with silence : Yes
Delete leading and trailing silent blocks : No
Null samples used in CRC calculations : Yes
Used interface : Native Win32 interface for Win NT & 2000

Used output format : User Defined Encoder
Selected bitrate : 768 kBit/s
Quality : High
Add ID3 tag : No
Command line compressor : C:\Program Files (x86)\Exact Audio Copy\FLAC\FLAC.EXE
Additional command line options : -6 -V -T "ARTIST=%artist%" -T "TITLE=%title%" -T "ALBUM=%albumtitle%" -T "DATE=%year%" -T "TRACKNUMBER=%tracknr%" -T "GENRE=%genre%" -T "COMMENT=%comment%" -T "BAND=%albuminterpret%" -T "ALBUMARTIST=%albuminterpret%" -T "COMPOSER=%composer%" %haslyrics%–tag-from-file=LYRICS="%lyricsfile%"%haslyrics% -T "DISCNUMBER=%cdnumber%" -T "TOTALDISCS=%totalcds%" -T "TOTALTRACKS=%numtracks%" %hascover%–picture="%coverfile%"%hascover% %source% -o %dest%


TOC of the extracted CD

Track | Start | Length | Start sector | End sector
––––––––––––––––––––––––––––-
1 | 0:00.00 | 4:05.55 | 0 | 18429
2 | 4:05.55 | 3:31.63 | 18430 | 34317
3 | 7:37.43 | 3:54.25 | 34318 | 51892
4 | 11:31.68 | 3:29.34 | 51893 | 67601
5 | 15:01.27 | 4:26.43 | 67602 | 87594
6 | 19:27.70 | 3:39.38 | 87595 | 104057
7 | 23:07.33 | 3:52.27 | 104058 | 121484
8 | 26:59.60 | 3:27.74 | 121485 | 137083
9 | 30:27.59 | 4:11.10 | 137084 | 155918
10 | 34:38.69 | 4:18.65 | 155919 | 175333
11 | 38:57.59 | 4:07.00 | 175334 | 193858
12 | 43:04.59 | 3:51.73 | 193859 | 211256
13 | 46:56.57 | 4:26.73 | 211257 | 231279
14 | 51:23.55 | 3:03.13 | 231280 | 245017
15 | 54:26.68 | 3:34.23 | 245018 | 261090
16 | 58:01.16 | 3:44.53 | 261091 | 277943
17 | 61:45.69 | 4:42.36 | 277944 | 299129
18 | 66:28.30 | 2:52.40 | 299130 | 312069
19 | 69:20.70 | 4:01.30 | 312070 | 330174
20 | 73:22.25 | 3:16.61 | 330175 | 344935
21 | 76:39.11 | 2:38.36 | 344936 | 356821


Range status and errors

Selected range

Filename C:\Users\Deris\Desktop\HueyLew\Huey Lewis And The News - Greatest Hits- Huey Lewis & The News.wav

Peak level 100.0 %
Extraction speed 5.1 X
Range quality 100.0 %
Test CRC AA834C1B
Copy CRC AA834C1B
Copy OK

No errors occurred


AccurateRip summary

Track 1 accurately ripped (confidence 93) [8B37DAD8] (AR v2)
Track 2 accurately ripped (confidence 92) [2FBF032B] (AR v2)
Track 3 accurately ripped (confidence 94) [D6D68606] (AR v2)
Track 4 accurately ripped (confidence 93) [37C4E0C1] (AR v2)
Track 5 accurately ripped (confidence 93) [8D8DB753] (AR v2)
Track 6 accurately ripped (confidence 93) [BDAFF74F] (AR v2)
Track 7 accurately ripped (confidence 93) [9BE13EA7] (AR v2)
Track 8 accurately ripped (confidence 93) [EF015089] (AR v2)
Track 9 accurately ripped (confidence 93) [121B7610] (AR v2)
Track 10 accurately ripped (confidence 93) [D918BC6C] (AR v2)
Track 11 accurately ripped (confidence 92) [DD066B5B] (AR v2)
Track 12 accurately ripped (confidence 92) [4ECEDFFC] (AR v2)
Track 13 accurately ripped (confidence 91) [9A41976E] (AR v2)
Track 14 accurately ripped (confidence 93) [9862BB83] (AR v2)
Track 15 accurately ripped (confidence 93) [B93E3E49] (AR v2)
Track 16 accurately ripped (confidence 91) [4CD8E4E5] (AR v2)
Track 17 accurately ripped (confidence 91) [8DEFB633] (AR v2)
Track 18 accurately ripped (confidence 91) [36604520] (AR v2)
Track 19 accurately ripped (confidence 90) [277BB7C1] (AR v2)
Track 20 accurately ripped (confidence 87) [F60B3D5F] (AR v2)
Track 21 accurately ripped (confidence 88) [972CBB11] (AR v2)

All tracks accurately ripped

End of status report

–– CUETools DB Plugin V2.1.3

[CTDB TOCID: npxJEVLl0gE.hVE2Pg3T5ghgmSg-] found
[83431a46] (400/583) Accurately ripped
[a3ae1a6a] (129/583) No match
[032fa33c] (001/583) Accurately ripped
[c6c4ca9a] (001/583) Accurately ripped
[74d880a7] (001/583) Accurately ripped
[a00f36a7] (001/583) Accurately ripped
[a0f913b3] (001/583) Accurately ripped
[52390315] (001/583) Accurately ripped
[1b1c46f2] (001/583) Accurately ripped
[212e9930] (001/583) Accurately ripped
[26167213] (001/583) Accurately ripped
[b558311f] (001/583) Accurately ripped
[b7b8c844] (001/583) Accurately ripped
[65376be7] (001/583) Accurately ripped
[e088f9f3] (001/583) Accurately ripped
[e83f963c] (001/583) Accurately ripped
[f1208c12] (001/583) Accurately ripped
[088c6750] (001/583) Accurately ripped
[ec8b2a6f] (001/583) Accurately ripped
[29640854] (001/583) Accurately ripped
[64fb79d9] (001/583) Accurately ripped
[124b54ea] (001/583) Accurately ripped
[442978e5] (001/583) Accurately ripped
[9fa93986] (001/583) Accurately ripped
[2645b3f9] (001/583) Accurately ripped
[93b2e192] (001/583) Accurately ripped
[6184403f] (001/583) Accurately ripped
[152fbd79] (001/583) Accurately ripped
[ec6ee32d] (001/583) Accurately ripped
[ce103027] (001/583) Accurately ripped
[9f12dbcf] (001/583) Accurately ripped
[d89eeb39] (001/583) Accurately ripped
[54cca2d9] (001/583) Accurately ripped
[1b3c0f1a] (001/583) Accurately ripped
[658de735] (001/583) Accurately ripped
[1c283dfe] (001/583) Accurately ripped
[a39c4579] (001/583) Accurately ripped
[7fe80f24] (001/583) Accurately ripped
[f940e1ec] (001/583) Accurately ripped
[677d90f2] (001/583) Accurately ripped
[19b4aec2] (001/583) Accurately ripped
[5f1817d9] (001/583) Accurately ripped
[27288295] (001/583) Accurately ripped
[bc825039] (001/583) Accurately ripped
[81476e10] (001/583) Accurately ripped
[089c8901] (001/583) Accurately ripped
[2a96ef6a] (001/583) Accurately ripped
[858436da] (001/583) Accurately ripped
[ac7d796c] (001/583) Accurately ripped
[d018af85] (001/583) Accurately ripped
[69d683c8] (001/583) Accurately ripped
[ca1863e4] (001/583) Accurately ripped
[a53e1e28] (001/583) Accurately ripped
[9d54e7cf] (001/583) Accurately ripped
[bf9a38f5] (001/583) Accurately ripped
[b413a408] (001/583) Accurately ripped


==== Log checksum 5E4D1AE11C21EE19119DE1E46C545DD358E7C3BBAEBC3F5B483DA20C1585CDFC ====

foobar2000 1.3.16 / Dynamic Range Meter 1.1.1
log date: 2018-02-15 01:58:50

––––––––––––––––––––––––––––––––––––––––
Analyzed: Huey Lewis And The News / Greatest Hits: Huey Lewis & The News
––––––––––––––––––––––––––––––––––––––––

DR Peak RMS Duration Track
––––––––––––––––––––––––––––––––––––––––
DR8 0.00 dB -9.16 dB 4:06 01-The heart of Rock & Roll
DR8 0.00 dB -9.13 dB 3:32 02-I want a new drug
DR8 0.00 dB -9.00 dB 3:54 03-The power of love
DR8 0.00 dB -8.98 dB 3:29 04-Jacob's ladder
DR8 0.00 dB -9.63 dB 4:27 05-Stuck with you
DR8 0.00 dB -9.79 dB 3:40 06-Doing it all for my baby
DR8 0.00 dB -10.15 dB 3:52 07-If this is it
DR7 0.00 dB -8.86 dB 3:28 08-Do you believe in love
DR9 0.00 dB -10.10 dB 4:11 09-Heart and soul
DR9 0.00 dB -10.11 dB 4:19 10-Back in time
DR8 0.00 dB -9.97 dB 4:07 11-Perfect world
DR8 0.00 dB -9.03 dB 3:52 12-I know what I like
DR7 0.00 dB -8.60 dB 4:27 13-Trouble in paradise (Live in San Francisco, CA, 2-21-85)
DR11 0.00 dB -12.64 dB 3:03 14-It's alright
DR7 -0.78 dB -9.64 dB 3:34 15-Cruisin' (with Gwyneth Paltrow)
DR8 0.00 dB -9.93 dB 3:45 16-Hope you love me like you say you do
DR9 0.00 dB -10.26 dB 4:42 17-Small world (feat. Stan Getz)
DR8 0.00 dB -9.39 dB 2:53 18-But it's alright
DR8 0.00 dB -9.15 dB 4:01 19-Hip to be square
DR8 0.00 dB -8.84 dB 3:17 20-Couple days off
DR6 0.00 dB -7.83 dB 2:38 21-Workin' for a livin'
––––––––––––––––––––––––––––––––––––––––

Number of tracks: 21
Official DR value: DR8

Samplerate: 44100 Hz
Channels: 2
Bits per sample: 16
Bitrate: 993 kbps
Codec: FLAC
================================================================================

[CUETools log; Date: 15.02.2018 1:59:02; Version: 2.1.5]
[CTDB TOCID: npxJEVLl0gE.hVE2Pg3T5ghgmSg-] found.
Track | CTDB Status
1 | (578/583) Accurately ripped
2 | (580/583) Accurately ripped
3 | (582/583) Accurately ripped
4 | (582/583) Accurately ripped
5 | (579/583) Accurately ripped
6 | (582/583) Accurately ripped
7 | (582/583) Accurately ripped
8 | (577/583) Accurately ripped
9 | (577/583) Accurately ripped
10 | (579/583) Accurately ripped
11 | (580/583) Accurately ripped
12 | (582/583) Accurately ripped
13 | (578/583) Accurately ripped
14 | (582/583) Accurately ripped
15 | (579/583) Accurately ripped
16 | (580/583) Accurately ripped
17 | (581/583) Accurately ripped
18 | (578/583) Accurately ripped
19 | (573/583) Accurately ripped
20 | (441/583) Accurately ripped, or (129/583) differs in 3 samples @02:38:13
21 | (431/583) Accurately ripped, or (129/583) differs in 63 samples @01:02:64-01:02:65
[AccurateRip ID: 003d4c94-03aae7de-46129515] found.
Track [ CRC | V2 ] Status
01 [d4a3f64e|8b37dad8] (021+093/541) Accurately ripped
02 [b538c2cb|2fbf032b] (021+092/536) Accurately ripped
03 [5d1e052b|d6d68606] (021+094/547) Accurately ripped
04 [fd3370be|37c4e0c1] (021+093/538) Accurately ripped
05 [7c8768de|8d8db753] (021+093/541) Accurately ripped
06 [a11577b7|bdaff74f] (021+093/535) Accurately ripped
07 [1b5f334e|9be13ea7] (021+093/541) Accurately ripped
08 [def62389|ef015089] (021+093/542) Accurately ripped
09 [621f61df|121b7610] (021+093/538) Accurately ripped
10 [d7438fa1|d918bc6c] (021+093/539) Accurately ripped
11 [3ee98d3d|dd066b5b] (021+092/527) Accurately ripped
12 [6c9aab49|4ecedffc] (021+092/526) Accurately ripped
13 [5f36dcbc|9a41976e] (021+091/527) Accurately ripped
14 [fdc6b671|9862bb83] (021+093/536) Accurately ripped
15 [b83ab83b|b93e3e49] (021+093/532) Accurately ripped
16 [7b0e330d|4cd8e4e5] (021+091/522) Accurately ripped
17 [a59d711d|8defb633] (021+091/528) Accurately ripped
18 [34f01423|36604520] (021+091/528) Accurately ripped
19 [58e88d2b|277bb7c1] (021+090/526) Accurately ripped
20 [b94c6473|f60b3d5f] (021+087/513) Accurately ripped
21 [b6dbfbb9|972cbb11] (020+088/513) Accurately ripped
Offsetted by -664:
01 [4607edd6] (002/541) Accurately ripped
02 [cdc9e0c3] (002/536) Accurately ripped
03 [87dfd45b] (002/547) Accurately ripped
04 [2b00dc33] (002/538) Accurately ripped
05 [b6065d4d] (002/541) Accurately ripped
06 [24cb14c7] (002/535) Accurately ripped
07 [41eaea9e] (002/541) Accurately ripped
08 [9ac279b9] (002/542) Accurately ripped
09 [02ce527e] (002/538) Accurately ripped
10 [38acc900] (002/539) Accurately ripped
11 [b22b1d53] (002/527) Accurately ripped
12 [204fc936] (002/526) Accurately ripped
13 [114a73df] (002/527) Accurately ripped
14 [04d588d1] (002/536) Accurately ripped
15 [1a81756b] (002/532) Accurately ripped
16 [644982ad] (002/522) Accurately ripped
17 [775015a5] (002/528) Accurately ripped
18 [7152f779] (002/528) Accurately ripped
19 [05aa3ad0] (002/526) Accurately ripped
20 [78ed45ba] (002/513) Accurately ripped
21 [cfa2649b] (002/513) Accurately ripped
Offsetted by -5:
01 [229a4e25] (019/541) Accurately ripped
02 [7b3099c4] (017/536) Accurately ripped
03 [bbe5a5f5] (019/547) Accurately ripped
04 [d991a2b9] (017/538) Accurately ripped
05 [18aae306] (018/541) Accurately ripped
06 [936ccfa5] (016/535) Accurately ripped
07 [ee2b0c34] (019/541) Accurately ripped
08 [2c53d273] (018/542) Accurately ripped
09 [4c337314] (017/538) Accurately ripped
10 [3c63707f] (017/539) Accurately ripped
11 [ab2e09ae] (017/527) Accurately ripped
12 [1ff9defc] (017/526) Accurately ripped
13 [7f4b4bc8] (017/527) Accurately ripped
14 [e4c4e585] (017/536) Accurately ripped
15 [ff235945] (016/532) Accurately ripped
16 [1f82b1b9] (017/522) Accurately ripped
17 [8472f2a4] (016/528) Accurately ripped
18 [19e1ced6] (017/528) Accurately ripped
19 [7006f60e] (017/526) Accurately ripped
20 [ba5afc66] (017/513) Accurately ripped
21 [7033a22d] (018/513) Accurately ripped
Offsetted by 578:
01 [a0337f38] (015/541) Accurately ripped
02 [834e7cc1] (015/536) Accurately ripped
03 [90929d27] (015/547) Accurately ripped
04 [573529fa] (015/538) Accurately ripped
05 [beb6fc10] (015/541) Accurately ripped
06 [98d7c30b] (015/535) Accurately ripped
07 [51b8db72] (015/541) Accurately ripped
08 [bc41f445] (016/542) Accurately ripped
09 [150f9cbd] (014/538) Accurately ripped
10 [616b7b92] (015/539) Accurately ripped
11 [29bd66ba] (015/527) Accurately ripped
12 [c14c9baf] (015/526) Accurately ripped
13 [0433bae0] (014/527) Accurately ripped
14 [4898a769] (014/536) Accurately ripped
15 [7ffb99b7] (014/532) Accurately ripped
16 [04d9cc95] (014/522) Accurately ripped
17 [d3ecdb2e] (014/528) Accurately ripped
18 [b603ac16] (014/528) Accurately ripped
19 [d54ff28a] (014/526) Accurately ripped
20 [4fba282c] (014/513) Accurately ripped
21 [26c3cff5] (014/513) Accurately ripped
Offsetted by 658:
01 [c0ce01c8] (018/541) Accurately ripped
02 [23d10d31] (018/536) Accurately ripped
03 [a4189087] (018/547) Accurately ripped
04 [7844f41c] (018/538) Accurately ripped
05 [181955fe] (018/541) Accurately ripped
06 [7362442b] (018/535) Accurately ripped
07 [24fb4d12] (018/541) Accurately ripped
08 [e66705a5] (018/542) Accurately ripped
09 [73ce896d] (017/538) Accurately ripped
10 [5056bd4a] (018/539) Accurately ripped
11 [843d9f26] (017/527) Accurately ripped
12 [274d1a4d] (018/526) Accurately ripped
13 [1bebcaea] (018/527) Accurately ripped
14 [d8b5b629] (018/536) Accurately ripped
15 [11718917] (018/532) Accurately ripped
16 [bd91e1d5] (018/522) Accurately ripped
17 [d3981b90] (018/528) Accurately ripped
18 [8fda80b5] (018/528) Accurately ripped
19 [dc124641] (018/526) Accurately ripped
20 [15053c89] (018/513) Accurately ripped
21 [aaa1691c] (018/513) Accurately ripped
Offsetted by 664:
01 [633ffec6] (138/541) Accurately ripped
02 [9ca7a4d3] (137/536) Accurately ripped
03 [325c35fb] (141/547) Accurately ripped
04 [5e80c9ae] (135/538) Accurately ripped
05 [2bce5cba] (138/541) Accurately ripped
06 [1d5fdaa7] (133/535) Accurately ripped
07 [f4d37bfe] (137/541) Accurately ripped
08 [2329cd59] (138/542) Accurately ripped
09 [27b674c7] (137/538) Accurately ripped
10 [2c00b54a] (136/539) Accurately ripped
11 [d17f09d4] (129/527) Accurately ripped
12 [d1aff15b] (128/526) Accurately ripped
13 [911945ba] (129/527) Accurately ripped
14 [f6b7e411] (135/536) Accurately ripped
15 [55f3fb0b] (131/532) Accurately ripped
16 [91d2e36d] (128/522) Accurately ripped
17 [fa7e4925] (131/528) Accurately ripped
18 [aa3881ec] (133/528) Accurately ripped
19 [8dc2953b] (133/526) Accurately ripped
20 [8428d9b1] (125/513) Accurately ripped
21 [67d9a166] (128/513) Accurately ripped
Offsetted by 670:
01 [05b1fbc4] (003/541) Accurately ripped
02 [157e3c75] (003/536) Accurately ripped
03 [c09fdb6f] (003/547) Accurately ripped
04 [454290d8] (003/538) Accurately ripped
05 [3f8a637a] (003/541) Accurately ripped
06 [c75d7123] (003/535) Accurately ripped
07 [c4abaaea] (003/541) Accurately ripped
08 [5fec950d] (003/542) Accurately ripped
09 [db9e6021] (002/538) Accurately ripped
10 [0651499c] (003/539) Accurately ripped
11 [1ebd7488] (002/527) Accurately ripped
12 [ad85af61] (004/526) Accurately ripped
13 [0647c08a] (003/527) Accurately ripped
14 [14ba11f9] (003/536) Accurately ripped
15 [9a766cff] (003/532) Accurately ripped
16 [6613e505] (002/522) Accurately ripped
17 [36386122] (003/528) Accurately ripped
18 [77de8327] (002/528) Accurately ripped
19 [3f80e431] (002/526) Accurately ripped
20 [832276d9] (002/513) Accurately ripped
21 [250fd9b0] (002/513) Accurately ripped
Offsetted by 610:
01 [ad3e19d8] (000/541) No match (V2 was not tested)
02 [5d1c5021] (000/536) No match (V2 was not tested)
03 [31fb64e7] (000/547) No match (V2 was not tested)
04 [710e393f] (000/538) No match (V2 was not tested)
05 [7b822007] (000/541) No match (V2 was not tested)
06 [2375904b] (000/535) No match (V2 was not tested)
07 [a639d5b2] (000/541) No match (V2 was not tested)
08 [0050c805] (000/542) No match (V2 was not tested)
09 [d48f2e9d] (000/538) No match (V2 was not tested)
10 [b5d5e84b] (000/539) No match (V2 was not tested)
11 [1a484a21] (000/527) No match (V2 was not tested)
12 [f13548cc] (000/526) No match (V2 was not tested)
13 [739cf473] (000/527) No match (V2 was not tested)
14 [e8a446e9] (000/536) No match (V2 was not tested)
15 [ed5df977] (000/532) No match (V2 was not tested)
16 [1b89d515] (000/522) No match (V2 was not tested)
17 [74b81aa1] (000/528) No match (V2 was not tested)
18 [546443a6] (000/528) No match (V2 was not tested)
19 [4f62cee7] (000/526) No match (V2 was not tested)
20 [7ba35342] (000/513) No match (V2 was not tested)
21 [c17ca6d3] (000/513) No match (V2 was not tested)
Offsetted by 639:
01 [e90fb5f9] (000/541) No match (V2 was not tested)
02 [7a7ed7b0] (000/536) No match (V2 was not tested)
03 [0c4259ed] (000/547) No match (V2 was not tested)
04 [0f426c11] (000/538) No match (V2 was not tested)
05 [2f3ac0ae] (000/541) No match (V2 was not tested)
06 [d914924d] (000/535) No match (V2 was not tested)
07 [12ceb87c] (000/541) No match (V2 was not tested)
08 [a5fe37eb] (000/542) No match (V2 was not tested)
09 [ba1acad0] (000/538) No match (V2 was not tested)
10 [eb49bcc3] (000/539) No match (V2 was not tested)
11 [e4dc781a] (000/527) No match (V2 was not tested)
12 [7c19583f] (000/526) No match (V2 was not tested)
13 [291a70b1] (000/527) No match (V2 was not tested)
14 [79aecf75] (000/536) No match (V2 was not tested)
15 [b87f203d] (000/532) No match (V2 was not tested)
16 [c8195cc9] (000/522) No match (V2 was not tested)
17 [1a834f98] (000/528) No match (V2 was not tested)
18 [3f43744a] (000/528) No match (V2 was not tested)
19 [fed9a19d] (000/526) No match (V2 was not tested)
20 [385d105d] (000/513) No match (V2 was not tested)
21 [fe33e18b] (000/513) No match (V2 was not tested)

Track Peak [ CRC32 ] [W/O NULL] [ LOG ]
– 100,0 [AA834C1B] [95B17196] CRC32
01 100,0 [51C69B1F] [083E16C9]
02 100,0 [BCD44227] [DA9F5B0A]
03 100,0 [110E4F64] [116D0432]
04 100,0 [EA0AADB5] [1D3D7CA9]
05 100,0 [14E4F0F7] [5C3B5F28]
06 100,0 [79241494] [327496E4]
07 100,0 [1F3D9D76] [97D7CA61]
08 100,0 [83D2A9BF] [2D1836DE]
09 100,0 [9B3DFFF7] [23567FD5]
10 100,0 [1882844E] [7C75AD4E]
11 100,0 [9BF5764A] [9077CC60]
12 100,0 [9432ABE4] [FC8043FF]
13 100,0 [8393C382] [9C6DA5ED]
14 100,0 [DE151F01] [E5DB6548]
15 91,4 [D9885712] [BD07427B]
16 100,0 [32801BC8] [68D9D53A]
17 100,0 [D5D70E57] [DEEE2352]
18 100,0 [B1CE8437] [9FFB25E3]
19 100,0 [9EFBF8D4] [C54921CD]
20 100,0 [4DC7BF04] [1ACFC3A6]
21 100,0 [4E1E79B9] [E00BA482]

Huey Lewis & The News - Greatest Hits (2006)

All thanks go to Boris1

>>> My Blog <<<

Download from icerbox.com: