Subcategories

Human Element - Human Element (2011) {Abstract Logix}

Posted By: tiburon
Human Element - Human Element (2011) {Abstract Logix}

Human Element - Human Element (2011) {Abstract Logix}
EAC 0.99pb4 | FLAC tracks | Cue+Log+M3U | Full Scans 200dpi | 472MB + 5% Recovery
Genre: Fusion
Human Element - Human Element (2011) {Abstract Logix}

In the tradition of Weather Report and the Joe Zawinul Syndicate, two powerhouse pan-global bands that have greatly influenced generations of musicians around the world, Human Element is staking out a new corner of the musical map on its self-titled debut. Comprised of keyboardist Scott Kinsey (Tribal Tech), electric bassist Matthew Garrison (Zawinul Syndicate, John McLaughlin's Heart of Things, Herbie Hancock), percussionist-vocalist Arto Tuncboyaciyan (Al Di Meola's World Sinfonia, Joe Zawinul, Marc Johnson's Right Brain Patrol) and drummer Gary Novak (Chick Corea's Elektric Band), Human Element incorporates elements of fusion, funk and Armenian folk tunes into a potent 21st century brew that defies easy categorization.
Track List
01. Introduction 0:25
02. Izzy 6:53
03. The Human Element 4:51
04. Speak With Your Eye 5:45
05. Onno 4:06
06. Hi Lao 3:38
07. Cut 6:00
08. Listen With Your Mouth 1:03
09. Essaouira 7:15
10. Crazy Girl 8:46
11. See With Your Ear 5:50
12. Shake It! 6:46
13. Bottom Of The Mirror 5:35
14. Think About It 6:11

musicians
Scott Kinsey - synthesizers, piano, vocoder
Arto Tuncboyaciyan - percussion, vocals, duduk, bular
Mattew Garrison - Fodera basses
Gary Novak - Yamaha drums, Zildjian cymbals

special guest

John McLaughlin - guitar on track 6

Produced by Human Element


EAC extraction logfile from 17. July 2011, 19:57

Human Element / Human Element

Used drive : HL-DT-ST BDDVDRW CH08LS10 Adapter: 1 ID: 0

Read mode : Secure
Utilize accurate stream : Yes
Defeat audio cache : Yes
Make use of C2 pointers : No

Read offset correction : 667
Overread into Lead-In and Lead-Out : No
Fill up missing offset samples with silence : Yes
Delete leading and trailing silent blocks : No
Null samples used in CRC calculations : Yes
Used interface : Native Win32 interface for Win NT & 2000
Gap handling : Appended to previous track

Used output format : Internal WAV Routines
Sample format : 44.100 Hz; 16 Bit; Stereo


TOC of the extracted CD

Track | Start | Length | Start sector | End sector
––––––––––––––––––––––––––––-
1 | 0:00.00 | 0:24.73 | 0 | 1872
2 | 0:24.73 | 6:53.22 | 1873 | 32869
3 | 7:18.20 | 4:50.74 | 32870 | 54693
4 | 12:09.19 | 5:45.17 | 54694 | 80585
5 | 17:54.36 | 4:06.21 | 80586 | 99056
6 | 22:00.57 | 3:38.42 | 99057 | 115448
7 | 25:39.24 | 6:00.21 | 115449 | 142469
8 | 31:39.45 | 1:03.18 | 142470 | 147212
9 | 32:42.63 | 7:15.56 | 147213 | 179893
10 | 39:58.44 | 8:46.22 | 179894 | 219365
11 | 48:44.66 | 5:50.33 | 219366 | 245648
12 | 54:35.24 | 6:46.67 | 245649 | 276165
13 | 61:22.16 | 5:35.25 | 276166 | 301315
14 | 66:57.41 | 6:11.64 | 301316 | 329204


Track 1

Filename C:\Users\Rene\Music\Human Element\2011 - Human Element\01. Introduction.wav

Pre-gap length 0:00:02.00

Peak level 95.4 %
Track quality 100.0 %
Test CRC 58AFA821
Copy CRC 58AFA821
Accurately ripped (confidence 2) [48E4B77C]
Copy OK

Track 2

Filename C:\Users\Rene\Music\Human Element\2011 - Human Element\02. Izzy.wav

Peak level 95.4 %
Track quality 100.0 %
Test CRC FA78F58E
Copy CRC FA78F58E
Accurately ripped (confidence 2) [D4119CC0]
Copy OK

Track 3

Filename C:\Users\Rene\Music\Human Element\2011 - Human Element\03. The Human Element.wav

Peak level 95.4 %
Track quality 100.0 %
Test CRC B0FED5AA
Copy CRC B0FED5AA
Accurately ripped (confidence 2) [887F704E]
Copy OK

Track 4

Filename C:\Users\Rene\Music\Human Element\2011 - Human Element\04. Speak With Your Eye.wav

Peak level 95.4 %
Track quality 100.0 %
Test CRC 7FF72DF4
Copy CRC 7FF72DF4
Accurately ripped (confidence 2) [C93FDA39]
Copy OK

Track 5

Filename C:\Users\Rene\Music\Human Element\2011 - Human Element\05. Onno.wav

Peak level 95.4 %
Track quality 100.0 %
Test CRC D64EA2AF
Copy CRC D64EA2AF
Accurately ripped (confidence 2) [8211D10D]
Copy OK

Track 6

Filename C:\Users\Rene\Music\Human Element\2011 - Human Element\06. Hi Lao.wav

Peak level 95.4 %
Track quality 100.0 %
Test CRC 89D80F81
Copy CRC 89D80F81
Accurately ripped (confidence 2) [203B788B]
Copy OK

Track 7

Filename C:\Users\Rene\Music\Human Element\2011 - Human Element\07. Cut.wav

Peak level 95.4 %
Track quality 100.0 %
Test CRC 0818C35D
Copy CRC 0818C35D
Accurately ripped (confidence 2) [E9D9C96C]
Copy OK

Track 8

Filename C:\Users\Rene\Music\Human Element\2011 - Human Element\08. Listen With Your Mouth.wav

Peak level 95.4 %
Track quality 100.0 %
Test CRC 4B6F6493
Copy CRC 4B6F6493
Accurately ripped (confidence 2) [52A00F20]
Copy OK

Track 9

Filename C:\Users\Rene\Music\Human Element\2011 - Human Element\09. Essaouira.wav

Peak level 95.4 %
Track quality 100.0 %
Test CRC F6A612C9
Copy CRC F6A612C9
Accurately ripped (confidence 2) [6CC29526]
Copy OK

Track 10

Filename C:\Users\Rene\Music\Human Element\2011 - Human Element\10. Crazy Girl.wav

Peak level 95.4 %
Track quality 100.0 %
Test CRC 052B9B50
Copy CRC 052B9B50
Accurately ripped (confidence 2) [D01AB8D7]
Copy OK

Track 11

Filename C:\Users\Rene\Music\Human Element\2011 - Human Element\11. See With Your Ear.wav

Peak level 95.4 %
Track quality 100.0 %
Test CRC 62762409
Copy CRC 62762409
Accurately ripped (confidence 2) [6BC398FF]
Copy OK

Track 12

Filename C:\Users\Rene\Music\Human Element\2011 - Human Element\12. Shake It!.wav

Peak level 95.4 %
Track quality 100.0 %
Test CRC B82CC45D
Copy CRC B82CC45D
Accurately ripped (confidence 2) [929AFFFD]
Copy OK

Track 13

Filename C:\Users\Rene\Music\Human Element\2011 - Human Element\13. Bottom Of The Mirror.wav

Peak level 95.4 %
Track quality 100.0 %
Test CRC B61FEDF4
Copy CRC B61FEDF4
Accurately ripped (confidence 2) [E636743F]
Copy OK

Track 14

Filename C:\Users\Rene\Music\Human Element\2011 - Human Element\14. Think About It.wav

Peak level 95.4 %
Track quality 100.0 %
Test CRC 2E90CCCB
Copy CRC 2E90CCCB
Accurately ripped (confidence 2) [358104EF]
Copy OK


All tracks accurately ripped

No errors occurred

End of status report


––––––––––––––––––––––––––––––––––––––––
Analyzed: Human Element / Human Element
––––––––––––––––––––––––––––––––––––––––

DR Peak RMS Duration Track
––––––––––––––––––––––––––––––––––––––––
DR7 -0.41 dB -17.46 dB 0:25 01-Introduction
DR12 -0.41 dB -15.60 dB 6:53 02-Izzy
DR13 -0.41 dB -15.28 dB 4:51 03-The Human Element
DR10 -0.40 dB -12.28 dB 5:45 04-Speak With Your Eye
DR10 -0.40 dB -12.66 dB 4:06 05-Onno
DR10 -0.40 dB -12.05 dB 3:39 06-Hi Lao
DR10 -0.41 dB -12.93 dB 6:00 07-Cut
DR13 -0.41 dB -15.45 dB 1:03 08-Listen With Your Mouth
DR10 -0.40 dB -13.08 dB 7:16 09-Essaouira
DR10 -0.41 dB -12.85 dB 8:46 10-Crazy Girl
DR12 -0.41 dB -15.19 dB 5:50 11-See With Your Ear
DR13 -0.41 dB -15.42 dB 6:47 12-Shake It!
DR11 -0.41 dB -15.34 dB 5:35 13-Bottom Of The Mirror
DR14 -0.41 dB -17.19 dB 6:12 14-Think About It
––––––––––––––––––––––––––––––––––––––––

Number of tracks: 14
Official DR value: DR11

Samplerate: 44100 Hz
Channels: 2
Bits per sample: 16
Bitrate: 801 kbps
Codec: FLAC
================================================================================
Human Element - Human Element (2011) {Abstract Logix}
Human Element - Human Element (2011) {Abstract Logix}


Rip by Wiscon