Subcategories

Hummingbird - We Can't Go On Meeting Like This (1976) [Japanese Edition 2010] (Repost)

Posted By: gribovar
Hummingbird - We Can't Go On Meeting Like This (1976) [Japanese Edition 2010] (Repost)

Hummingbird - We Can't Go On Meeting Like This (1976) [Japanese Edition 2010]
EAC Rip | FLAC (image+.cue+log) - 329 MB | MP3 CBR 320 kbps (LAME 3.93) - 112 MB | Covers - 153 MB
Genre: Jazz-Funk, Soul-Jazz | RAR 3% Rec. | Label: Universal Music (UICY-94677)

This was, in fact, the second release by the spin-off of the 2nd Jeff Beck Group. Keyboardist Max Middleton, bassist Clive Chaman, and Vocalist, Guitarist Bobble Tench remain from that wonderful band. On this 2nd release, they have a new drummer in seasoned funk, R&B, and jazz drummer Bernard Purdie, and add guitarist Robert Ahwai. This is a solid session of funkie, jazzie rock, but the drop off from the 1st self titled, Hummingbird release, is in the songs. The primary songwriter on that 1st release was the drummer, Conrad Isadore. Without his tropical vision, style and imagery, we are left with a fairly mundane R&B Rock workout. But these guys are great musicians, and they take this so-so material and make it fun and powerful.
Tracklist:
01. Fire And Brimstone
02. Gypsy Skys
03. Trouble Maker
04. Scorpio
05. We Can't Go On Meeting Like This
06. The City Mouse
07. A Friend Forever
08. Heaven Knows (Where You've Been)
09. Snake Snack
10. Let It Burn

Total time: 47:36

Exact Audio Copy V1.0 beta 3 from 29. August 2011

EAC extraction logfile from 31. January 2012, 18:50

Hummingbird / We Can't Go On Meeting Like This

Used drive : HL-DT-STDVDRAM GSA-H60N Adapter: 2 ID: 0

Read mode : Secure
Utilize accurate stream : Yes
Defeat audio cache : Yes
Make use of C2 pointers : No

Read offset correction : 667
Overread into Lead-In and Lead-Out : No
Fill up missing offset samples with silence : Yes
Delete leading and trailing silent blocks : No
Null samples used in CRC calculations : Yes
Used interface : Native Win32 interface for Win NT & 2000

Used output format : Internal WAV Routines
Sample format : 44.100 Hz; 16 Bit; Stereo


TOC of the extracted CD

Track | Start | Length | Start sector | End sector
––––––––––––––––––––––––––––-
1 | 0:00.00 | 5:21.72 | 0 | 24146
2 | 5:21.72 | 5:29.02 | 24147 | 48823
3 | 10:50.74 | 3:20.70 | 48824 | 63893
4 | 14:11.69 | 4:20.44 | 63894 | 83437
5 | 18:32.38 | 3:53.22 | 83438 | 100934
6 | 22:25.60 | 5:42.73 | 100935 | 126657
7 | 28:08.58 | 5:32.53 | 126658 | 151610
8 | 33:41.36 | 4:25.52 | 151611 | 171537
9 | 38:07.13 | 4:31.51 | 171538 | 191913
10 | 42:38.64 | 4:56.49 | 191914 | 214162


Range status and errors

Selected range

Filename C:\Documents and Settings\Admin\Рабочий стол\Rip by ALLexxess\Hummingbird\1976 We Can't Go On Meeting Like This (Universal Music Japan Mini LP SHM-CD 2010)\Hummingbird - We Can't Go On Meeting Like This.wav

Peak level 99.8 %
Extraction speed 5.8 X
Range quality 100.0 %
Test CRC 3F496727
Copy CRC 3F496727
Copy OK

No errors occurred


AccurateRip summary

Track 1 accurately ripped (confidence 1) [D5345767] (AR v1)
Track 2 accurately ripped (confidence 1) [049B7ACC] (AR v1)
Track 3 accurately ripped (confidence 1) [777981DC] (AR v1)
Track 4 accurately ripped (confidence 1) [A6E2A3CB] (AR v1)
Track 5 accurately ripped (confidence 1) [4BD4B3D9] (AR v1)
Track 6 accurately ripped (confidence 1) [9C8A3E03] (AR v1)
Track 7 accurately ripped (confidence 1) [23B38265] (AR v1)
Track 8 accurately ripped (confidence 1) [4B1E4B2E] (AR v1)
Track 9 accurately ripped (confidence 1) [DAFCEFAE] (AR v1)
Track 10 accurately ripped (confidence 1) [DC648F68] (AR v1)

All tracks accurately ripped

End of status report

==== Log checksum 8FF32C2C43E7C88C79EA8851A8961DF4F1C0D7B53800D11C531001CAB3518B87 ====

[CUETools log; Date: 04.12.2019 17:27:39; Version: 2.1.4]
[CTDB TOCID: mD6W21aEJg1GWcKDHCykm2fWTAU-] found.
Track | CTDB Status
1 | (23/24) Accurately ripped
2 | (24/24) Accurately ripped
3 | (23/24) Accurately ripped
4 | (23/24) Accurately ripped
5 | (24/24) Accurately ripped
6 | (24/24) Accurately ripped
7 | (24/24) Accurately ripped
8 | (24/24) Accurately ripped
9 | (23/24) Accurately ripped
10 | (23/24) Accurately ripped
[AccurateRip ID: 0011f622-008f4d34-760b270a] found.
Track [ CRC | V2 ] Status
01 [d5345767|2ea83ddc] (0+8/8) Accurately ripped
02 [049b7acc|15fb53f8] (0+8/8) Accurately ripped
03 [777981dc|7b6b9327] (0+8/8) Accurately ripped
04 [a6e2a3cb|7eace197] (0+8/8) Accurately ripped
05 [4bd4b3d9|f542d592] (0+8/8) Accurately ripped
06 [9c8a3e03|1dae7e55] (0+8/8) Accurately ripped
07 [23b38265|42127728] (0+8/8) Accurately ripped
08 [4b1e4b2e|c4d93ee0] (0+8/8) Accurately ripped
09 [dafcefae|ab2f3a13] (0+8/8) Accurately ripped
10 [dc648f68|6df82a35] (0+7/7) Accurately ripped

Track Peak [ CRC32 ] [W/O NULL] [ LOG ]
– 99,8 [3F496727] [3468BF5A] CRC32
01 99,8 [55A01B18] [056CC77E]
02 99,8 [DB923EAE] [224C6C54]
03 99,8 [A727BD11] [82743B7A]
04 99,8 [19B3002D] [3C60F919]
05 99,8 [4E980583] [B01CFC87]
06 99,8 [CC259CA4] [18839545]
07 99,8 [18CADE09] [A4149166]
08 99,8 [067DCAD6] [32D61B78]
09 99,8 [7A559206] [47979F23]
10 99,8 [1271B414] [98BCC956]

Thanks to ALLexxess