Subcategories

Hundred Seventy Split - Tracks (2016)

Posted By: popsakov
Hundred Seventy Split - Tracks (2016)

Hundred Seventy Split - Tracks (2016)
EAC Rip | FLAC (Img) + Cue + Log ~ 402 Mb | MP3 CBR320 ~ 134 Mb
Scans (JPG, 600 dpi) ~ 82 Mb | RAR 5% Recovery
Blues Rock | Corner House Records #CHR 009

Hundred Seventy Split are a Blues rock power trio featuring Leo Lyons bassist and founding member of Ten Years After, guitarist /vocalist Joe Gooch and drummer Damon Sawyer. The new Hundred Seventy Split Studio-Album has 11 fantastic tracks that will also be performed live on their forthcoming Tour in November. Joe Gooch, Leo Lyons and Damon Sawyer deliver their 3rd studio album full of energetic Bluesrock.
Hundred Seventy Split - Tracks (2016)


***************

Hundred Seventy Split - Tracks (2016)

Track List:

01. It's Coming Back Around [4:47]
02. The Game [5:13]
03. If You Make It To The Top [4:45]
04. I Grew Up On Muddy Waters [4:17]
05. Lonely [4:53]
06. Gravedigger [7:14]
07. Looking For A Sign [5:21]
08. She's Got The Mojo [3:29]
09. Tail Lights [5:32]
10. The Final Curtain [4:13]
11. You Can't Drink It [5:36]

Personnel:

Leo Lyons - bass, double bass
Joe Gooch – guitar, vocals
Damon Sawyer - drums

Guests:
Billy Livsey - Hammond on tracks 2, 3 & 9

Exact Audio Copy V1.0 beta 4 from 7. December 2014

EAC extraction logfile from 5. November 2016, 12:45

Hundred Seventy Split / Tracks (2016, CHR 009)

Used drive : Optiarc BD RW BD-5300S Adapter: 0 ID: 0

Read mode : Secure
Utilize accurate stream : Yes
Defeat audio cache : Yes
Make use of C2 pointers : No

Read offset correction : 6
Overread into Lead-In and Lead-Out : No
Fill up missing offset samples with silence : Yes
Delete leading and trailing silent blocks : No
Null samples used in CRC calculations : Yes
Used interface : Installed external ASPI interface

Used output format : User Defined Encoder
Selected bitrate : 128 kBit/s
Quality : High
Add ID3 tag : Yes
Command line compressor : C:\Program Files (x86)\Exact Audio Copy\Flac\flac.exe
Additional command line options : -V -8 -T "Date=%year%" -T "Genre=%genre%" %source%


TOC of the extracted CD

Track | Start | Length | Start sector | End sector
––––––––––––––––––––––––––––-
1 | 0:00.00 | 4:47.23 | 0 | 21547
2 | 4:47.23 | 5:13.25 | 21548 | 45047
3 | 10:00.48 | 4:45.21 | 45048 | 66443
4 | 14:45.69 | 4:16.38 | 66444 | 85681
5 | 19:02.32 | 4:52.53 | 85682 | 107634
6 | 23:55.10 | 7:14.20 | 107635 | 140204
7 | 31:09.30 | 5:21.32 | 140205 | 164311
8 | 36:30.62 | 3:28.63 | 164312 | 179974
9 | 39:59.50 | 5:32.00 | 179975 | 204874
10 | 45:31.50 | 4:13.36 | 204875 | 223885
11 | 49:45.11 | 5:35.55 | 223886 | 249065


Range status and errors

Selected range

Filename F:\CD\Hundred Seventy Split - Tracks.wav

Peak level 98.8 %
Extraction speed 3.2 X
Range quality 100.0 %
Test CRC E8A678B8
Copy CRC E8A678B8
Copy OK

No errors occurred


AccurateRip summary

Track 1 not present in database
Track 2 not present in database
Track 3 not present in database
Track 4 not present in database
Track 5 not present in database
Track 6 not present in database
Track 7 not present in database
Track 8 not present in database
Track 9 not present in database
Track 10 not present in database
Track 11 not present in database

None of the tracks are present in the AccurateRip database

End of status report

–– CUETools DB Plugin V2.1.4

[CTDB TOCID: Aa0fHfav3Pqqmusm.T1nO8Vfzx0-] found
Submit result: Aa0fHfav3Pqqmusm.T1nO8Vfzx0- has been confirmed
Track | CTDB Status
1 | (7/7) Accurately ripped
2 | (7/7) Accurately ripped
3 | (6/7) Accurately ripped
4 | (7/7) Accurately ripped
5 | (7/7) Accurately ripped
6 | (7/7) Accurately ripped
7 | (7/7) Accurately ripped
8 | (7/7) Accurately ripped
9 | (7/7) Accurately ripped
10 | (7/7) Accurately ripped
11 | (7/7) Accurately ripped


==== Log checksum 7C8D431F30E125B172C6CB0C75FAD9C142ED41811932BAF2A743077349BA49E4 ====

foobar2000 1.2.6 / Dynamic Range Meter 1.1.1
log date: 2016-11-06 14:21:13

––––––––––––––––––––––––––––––––––––––––
Analyzed: Hundred Seventy Split / Tracks (2016, CHR 009)
––––––––––––––––––––––––––––––––––––––––

DR Peak RMS Duration Track
––––––––––––––––––––––––––––––––––––––––
DR5 -1.13 dB -6.56 dB 4:47 01-It's Coming Back Around
DR6 -1.69 dB -9.31 dB 5:13 02-The Game
DR7 -1.24 dB -9.66 dB 4:45 03-If You Make It To The Top
DR9 -0.10 dB -10.31 dB 4:17 04-I Grew Up On Muddy Waters
DR8 -0.62 dB -9.68 dB 4:53 05-Lonely
DR10 -0.10 dB -11.33 dB 7:14 06-Gravedigger
DR7 -1.35 dB -8.79 dB 5:21 07-Looking For A Sign
DR8 -0.81 dB -9.83 dB 3:29 08-She's Got The Mojo
DR7 -1.60 dB -9.81 dB 5:32 09-Tail Lights
DR9 -1.09 dB -10.79 dB 4:13 10-The Final Curtain
DR9 -0.68 dB -10.92 dB 5:36 11-You Can't Drink It
––––––––––––––––––––––––––––––––––––––––

Number of tracks: 11
Official DR value: DR8

Samplerate: 44100 Hz
Channels: 2
Bits per sample: 16
Bitrate: 964 kbps
Codec: FLAC
================================================================================

[CUETools log; Date: 06.11.2016 14:21:16; Version: 2.1.5]
[CTDB TOCID: Aa0fHfav3Pqqmusm.T1nO8Vfzx0-] found.
Track | CTDB Status
1 | (8/8) Accurately ripped
2 | (8/8) Accurately ripped
3 | (7/8) Accurately ripped
4 | (8/8) Accurately ripped
5 | (8/8) Accurately ripped
6 | (8/8) Accurately ripped
7 | (8/8) Accurately ripped
8 | (8/8) Accurately ripped
9 | (8/8) Accurately ripped
10 | (8/8) Accurately ripped
11 | (8/8) Accurately ripped
[AccurateRip ID: 0016b724-00c55c57-9c0cf80b] disk not present in database.

Track Peak [ CRC32 ] [W/O NULL] [ LOG ]
– 98,8 [E8A678B8] [1370EBE1] CRC32
01 87,7 [7D53499C] [B7A50F5B]
02 82,3 [0A7AC321] [A0EA8D2C]
03 86,7 [AB1F0603] [10C3CC61]
04 98,8 [25A14138] [3CAB506C]
05 93,0 [1CD71E99] [64768E3A]
06 98,8 [08782062] [75135864]
07 85,6 [3D0FEEF4] [5CFC3E0C]
08 91,1 [2A6575E0] [CE35F057]
09 83,1 [E3966344] [2E177592]
10 88,2 [D8360C2C] [774EAC65]
11 92,5 [0183BA1D] [6E01FD2E]

Hundred Seventy Split - Tracks (2016)

Hundred Seventy Split - Tracks (2016)

See also:
Hundred Seventy Split - The World Won't Stop (2010) + HSS (2014)
Hundred Seventy Split - The Road (2015) Live

All thanks go to gerrV

> Visit my blog <

Download: