Subcategories

Hurdy Gurdy - Hurdy Gurdy (1971)

Posted By: v3122
Hurdy Gurdy - Hurdy Gurdy (1971)

Hurdy Gurdy - Hurdy Gurdy (1971)
EAC | Flac(Image) + Cue + Log & MP3 CBR 320Kbps
1992 | Background, HBG 122/1 | ~ 251 or 96 Mb | Artwork(jpg) -> 4.18 Mb
Psychedelic Rock, Hard Rock

Hurdy Gurdy's early-'70s self-titled album is period hard rock with substantial blues-rock influence and some hangover from the psychedelic era. Although Claus Bohling was a virtuosic guitarist (he also plays harmonica and sitar on the record), there's not too much to the songs, which are mostly vehicles for the power trio to spin off riffs owing much to the high-volume wattage of late-'60s Cream, British blues-rock, and particularly Jimi Hendrix. "You Can't Go Backwards" (the sole nongroup original on the album) seems the result of multiple absorptions of Hendrix's "Red House," and while the Indian sounds of "Peaceful Open Space" (on which Bohling plays sitar) make for a change of gear, it's emblematic of the superficial way in which many rock groups tried their hands at raga-rock in passing. Bohling's faintly accented vocals (all in English) are nothing special either. This was an adept power trio, but skill isn't enough to make lasting music; you need to have something to say as well, and Hurdy Gurdy didn't seem to have much.

by Richie Unterberger, allmusic
Hurdy Gurdy - Hurdy Gurdy (1971):

Hurdy Gurdy - Hurdy Gurdy (1971)

Tracklist:

01. Ride On 05:11
02. The Giant 05:01
03. Tell Me Your Name 04:29
04. Peacefull Open Spaces 05:21
05. Babels Tower 03:18
06. Spaceman 04:20
07. Lost In The Jungle 08:45
08. You Can't Go Backwards 04:03

Musicians:

Claus Bohling - Vocals, Guitar, Harmonica, Sitar
Jens Marqvard Otzen - Percussion, Vocals
Torben Forne - Bass


Exact Audio Copy V1.3 from 2. September 2016

EAC extraction logfile from 5. December 2018, 18:18

Hurdy Gurdy / Hurdy Gurdy

Used drive : TSSTcorpCDDVDW SH-224DB Adapter: 1 ID: 0

Read mode : Secure
Utilize accurate stream : Yes
Defeat audio cache : Yes
Make use of C2 pointers : No

Read offset correction : 6
Overread into Lead-In and Lead-Out : No
Fill up missing offset samples with silence : Yes
Delete leading and trailing silent blocks : No
Null samples used in CRC calculations : Yes
Used interface : Native Win32 interface for Win NT & 2000
Gap handling : Appended to previous track

Used output format : User Defined Encoder
Selected bitrate : 1024 kBit/s
Quality : High
Add ID3 tag : No
Command line compressor : C:\Program Files (x86)\Exact Audio Copy\win64\flac.exe
Additional command line options : -8 -V -T "ARTIST=%artist%" -T "TITLE=%title%" -T "ALBUM=%albumtitle%" -T "DATE=%year%" -T "TRACKNUMBER=%tracknr%" -T "GENRE=%genre%" -T "COMMENT=%comment%" %source% -o %dest%


TOC of the extracted CD

Track | Start | Length | Start sector | End sector
––––––––––––––––––––––––––––-
1 | 0:00.33 | 5:10.72 | 33 | 23354
2 | 5:11.30 | 5:00.58 | 23355 | 45912
3 | 10:12.13 | 4:29.05 | 45913 | 66092
4 | 14:41.18 | 5:20.47 | 66093 | 90139
5 | 20:01.65 | 3:17.55 | 90140 | 104969
6 | 23:19.45 | 4:20.33 | 104970 | 124502
7 | 27:40.03 | 8:45.02 | 124503 | 163879
8 | 36:25.05 | 4:02.45 | 163880 | 182074


Track 1

Filename F:\Sket4er\Hurdy Gurdy – Hurdy Gurdy (1971) 1992\01 Ride On.wav

Pre-gap length 0:00:02.33

Peak level 94.5 %
Extraction speed 2.2 X
Track quality 100.0 %
Test CRC 09F55AE4
Copy CRC 09F55AE4
Cannot be verified as accurate (confidence 1) [57ED104E], AccurateRip returned [5FE333F5] (AR v2)
Copy OK

Track 2

Filename F:\Sket4er\Hurdy Gurdy – Hurdy Gurdy (1971) 1992\02 The Giant.wav

Peak level 94.5 %
Extraction speed 1.9 X
Track quality 99.9 %
Test CRC 563C8134
Copy CRC 563C8134
Cannot be verified as accurate (confidence 1) [6474E25D], AccurateRip returned [CAB06AA8] (AR v2)
Copy OK

Track 3

Filename F:\Sket4er\Hurdy Gurdy – Hurdy Gurdy (1971) 1992\03 Tell Me Your Name.wav

Peak level 94.5 %
Extraction speed 2.1 X
Track quality 100.0 %
Test CRC F37F1E42
Copy CRC F37F1E42
Cannot be verified as accurate (confidence 1) [90543D7A], AccurateRip returned [B9171243] (AR v2)
Copy OK

Track 4

Filename F:\Sket4er\Hurdy Gurdy – Hurdy Gurdy (1971) 1992\04 Peaceful Open Space.wav

Peak level 94.5 %
Extraction speed 2.1 X
Track quality 100.0 %
Test CRC 5324CBA3
Copy CRC 5324CBA3
Cannot be verified as accurate (confidence 1) [F6A58BFE], AccurateRip returned [445CE9A2] (AR v2)
Copy OK

Track 5

Filename F:\Sket4er\Hurdy Gurdy – Hurdy Gurdy (1971) 1992\05 Babels Tower.wav

Peak level 94.5 %
Extraction speed 2.0 X
Track quality 100.0 %
Test CRC 697712FC
Copy CRC 697712FC
Cannot be verified as accurate (confidence 1) [A16B7EF2], AccurateRip returned [AD0131E4] (AR v2)
Copy OK

Track 6

Filename F:\Sket4er\Hurdy Gurdy – Hurdy Gurdy (1971) 1992\06 Spaceman.wav

Peak level 94.5 %
Extraction speed 2.1 X
Track quality 100.0 %
Test CRC 632E8CD7
Copy CRC 632E8CD7
Cannot be verified as accurate (confidence 1) [A1787D06], AccurateRip returned [AECA46E8] (AR v2)
Copy OK

Track 7

Filename F:\Sket4er\Hurdy Gurdy – Hurdy Gurdy (1971) 1992\07 Lost In The Jungle.wav

Peak level 94.5 %
Extraction speed 2.2 X
Track quality 100.0 %
Test CRC 6E38D5BE
Copy CRC 6E38D5BE
Cannot be verified as accurate (confidence 1) [38E94137], AccurateRip returned [C3B16C66] (AR v2)
Copy OK

Track 8

Filename F:\Sket4er\Hurdy Gurdy – Hurdy Gurdy (1971) 1992\08 You Can't Go Backwards.wav

Peak level 94.5 %
Extraction speed 2.1 X
Track quality 100.0 %
Test CRC F8C65765
Copy CRC F8C65765
Cannot be verified as accurate (confidence 1) [54B5FA85], AccurateRip returned [622E3D0E] (AR v2)
Copy OK


No tracks could be verified as accurate
You may have a different pressing from the one(s) in the database

No errors occurred

End of status report

–– CUETools DB Plugin V2.1.6

[CTDB TOCID: PwlsAqMPTerKTQuwY5eo957ggFk-] found
Submit result: PwlsAqMPTerKTQuwY5eo957ggFk- has been submitted
Track | CTDB Status
1 | (2/2) Accurately ripped
2 | (2/2) Accurately ripped
3 | (2/2) Accurately ripped
4 | (2/2) Accurately ripped
5 | (2/2) Accurately ripped
6 | (0/2) No match
7 | (0/2) No match
8 | (0/2) No match


==== Log checksum C924860692E14C6280EB41A57F1B3A6416B99E6847B1745705365EA41AB51F6F ====


[CUETools log; Date: 07.12.2018 0:03:51; Version: 2.1.4]
Pregap length 00:00:33.
[AccurateRip ID: 000c38c2-0051a4d2-54097b08] found.
Track [ CRC | V2 ] Status
01 [35c46285|57ed104e] (0+0/3) No match
02 [3284de64|6474e25d] (0+0/3) No match
03 [94bb580b|90543d7a] (0+0/3) No match
04 [3a68731e|f6a58bfe] (0+0/3) No match
05 [ff06f3ba|a16b7ef2] (0+0/3) No match
06 [a85d8c8a|a1787d06] (0+0/3) No match
07 [09f911de|38e94137] (0+0/3) No match
08 [00c396b9|54b5fa85] (0+0/3) No match
Offsetted by 6:
01 [5fe333f5] (1/3) Accurately ripped
02 [cab06aa8] (1/3) Accurately ripped
03 [b9171243] (1/3) Accurately ripped
04 [445ce9a2] (1/3) Accurately ripped
05 [ad0131e4] (1/3) Accurately ripped
06 [2be208c4] (0/3) No match (V2 was not tested)
07 [9c837bf0] (0/3) No match (V2 was not tested)
08 [7663e6f1] (0/3) No match (V2 was not tested)

Track Peak [ CRC32 ] [W/O NULL] [ LOG ]
– 94,5 [F71D5D23] [0E3A276A]
01 94,5 [09F55AE4] [3A32D6AC] CRC32
02 94,5 [563C8134] [F09A6A08] CRC32
03 94,5 [F37F1E42] [51EED18D] CRC32
04 94,5 [5324CBA3] [1C68DD00] CRC32
05 94,5 [697712FC] [0AB4CE8A] CRC32
06 94,5 [632E8CD7] [24398096] CRC32
07 94,5 [6E38D5BE] [74FDFFC6] CRC32
08 94,5 [F8C65765] [899E78CD] CRC32


Hurdy Gurdy - Hurdy Gurdy (1971)

All thanks go to Sket4er

Download Hurdy Gurdy - Hurdy Gurdy (1971):