Tags
Language
Tags
December 2022
Su Mo Tu We Th Fr Sa
27 28 29 30 1 2 3
4 5 6 7 8 9 10
11 12 13 14 15 16 17
18 19 20 21 22 23 24
25 26 27 28 29 30 31

Hurricane Ruth - Live At 3rd And Lindsley (2022)

Posted By: popsakov
Hurricane Ruth - Live At 3rd And Lindsley (2022)

Hurricane Ruth - Live At 3rd And Lindsley (2022)
EAC Rip | FLAC (Img) + Cue + Log ~ 456 Mb | MP3 CBR320 ~ 186 Mb
Full Scans | 01:16:12 | RAR 5% Recovery
Blues Rock, Electric Blues | Hurricane Ruth Records #195269143992

Hurricane Ruth Live at 3rd and Lindsley is 14 songs of unbridled blues rock fury! Hurricane Ruth is old school, real and raw. Her vocals are deeply rooted in the blues, but make no mistake she can rock the house! She is cut from the same cloth as Big Mama Thornton, Janis Joplin, and Tina Turner. Hurricane Ruth pulls from all these greats to create her own unique sound. Hurricane Ruth is a powerful, unpredictable, everchanging MUSICAL FORCE OF NATURE!

Ruth has performed with John Lee Hooker, B.B. King, Willie Dixon, Taj Mahal, Ramsey Lewis Trio, Sam & Dave, Fenton Robinson, Maynard Ferguson and his orchestra, and most recently; Kenny Wayne Shepherd, Royal Southern Brotherhood, Ronnie Baker Brooks, and Mike Zito. Ruth’s vocals are deeply rooted in traditional blues, but make no mistake, she can rock the house! Ruth has opened for renowned rockers: Heart, Judas Priest, Joan Jett and The Blackhearts & Steppenwolf.
Track List:

01. Roll Little Sister [4:22]
02. Hard Rockin' Woman [4:08]
03. What You Never Had [4:13]
04. Dirty Blues [4:48]
05. Faith In Me [5:44]
06. Slow Burn [5:21]
07. Cry Like A Rainy Day [7:22]
08. Barrelhouse Joe's [3:16]
09. As The Years Go Passing By [7:32]
10. Make Love To Me [7:18]
11. I?ve Got to Use My Imagination [5:31]
12. Like Wildfire [4:25]
13. Far From The Cradle [5:29]
14. Dance Dance Norma Jean [6:48]

Exact Audio Copy V1.3 from 2. September 2016

Отчёт EAC об извлечении, выполненном 22. марта 2022, 1:14

Hurricane Ruth / Live At 3rd & Lindsley

Дисковод: HL-DT-STDVD+-RW GH82N Adapter: 1 ID: 0

Режим чтения : Достоверность
Использование точного потока : Да
Отключение кэша аудио : Да
Использование указателей C2 : Нет

Коррекция смещения при чтении : 667
Способность читать области Lead-in и Lead-out : Нет
Заполнение пропущенных сэмплов тишиной : Да
Удаление блоков с тишиной в начале и конце : Нет
При вычислениях CRC использовались нулевые сэмплы : Да
Интерфейс : Встроенный Win32-интерфейс для Win NT/2000

Выходной формат : Пользовательский кодировщик
Выбранный битрейт : 1024 kBit/s
Качество : Высокий
Добавление ID3-тега : Нет
Утилита сжатия : C:\Program Files (x86)\Exact Audio Copy\FLAC\FLAC.EXE
Дополнительные параметры : -8 -V -T "ARTIST=%artist%" -T "ALBUM=%albumtitle%" -T "DATE=%year%" -T "GENRE=%genre%" -T "COMMENT=ripped by Los Pistoleros" %source%


TOC извлечённого CD

Трек | Старт | Длительность | Начальный сектор | Конечный сектор
––––––––––––––––––––––––––––––––––-
1 | 0:00.00 | 4:21.64 | 0 | 19638
2 | 4:21.64 | 4:07.61 | 19639 | 38224
3 | 8:29.50 | 4:12.26 | 38225 | 57150
4 | 12:42.01 | 4:47.36 | 57151 | 78711
5 | 17:29.37 | 5:43.66 | 78712 | 104502
6 | 23:13.28 | 5:20.58 | 104503 | 128560
7 | 28:34.11 | 7:21.43 | 128561 | 161678
8 | 35:55.54 | 3:15.29 | 161679 | 176332
9 | 39:11.08 | 7:31.02 | 176333 | 210159
10 | 46:42.10 | 7:17.39 | 210160 | 242973
11 | 53:59.49 | 5:30.06 | 242974 | 267729
12 | 59:29.55 | 4:24.46 | 267730 | 287575
13 | 63:54.26 | 5:28.58 | 287576 | 312233
14 | 69:23.09 | 6:47.72 | 312234 | 342830


Характеристики диапазона извлечения и сообщения об ошибках

Выбранный диапазон

Имя файла E:\BitComet\Hurricane Ruth\2022 - Live at 3rd and Lindsley\Hurricane Ruth - Live At 3rd & Lindsley.wav

Пиковый уровень 100.0 %
Скорость извлечения 7.8 X
Качество диапазона 100.0 %
CRC теста 3177D2E8
CRC копии 3177D2E8
Копирование… OK

Ошибок не произошло


AccurateRip: сводка

Трек 1 отсутствует в базе данных
Трек 2 отсутствует в базе данных
Трек 3 отсутствует в базе данных
Трек 4 отсутствует в базе данных
Трек 5 отсутствует в базе данных
Трек 6 отсутствует в базе данных
Трек 7 отсутствует в базе данных
Трек 8 отсутствует в базе данных
Трек 9 отсутствует в базе данных
Трек 10 отсутствует в базе данных
Трек 11 отсутствует в базе данных
Трек 12 отсутствует в базе данных
Трек 13 отсутствует в базе данных
Трек 14 отсутствует в базе данных

Ни одного трека нет в базе AccurateRip

Конец отчёта

==== Контрольная сумма отчёта 17ED96066FC01B0E7BFFBD3AC16045A33CC82DEBECADA6CCF7B4FA98B06F54C1 ====

All thanks go to Los Pistoleros aka izia1956

>>> Hurricane Ruth in my Blog <<<

DOWNLOAD: