Subcategories

Hurricane - Slave To The Thrill (1990) [Japan 1st Press]

Posted By: Andi_Deris
Hurricane - Slave To The Thrill (1990) [Japan 1st Press]

Hurricane - Slave To The Thrill (1990) [Japan 1st Press]
EAC Rip | FLAC: Image+Cue+Log | 343 Mb | MP3 CBR 320 kbps | 118 Mb | Scans | Time: 47:17
Genre: Hard Rock, Hair Metal | Label: Enigma Records/Toshiba-EMI Ltd. | Cat.: TOCP-6163

"Slave to the Thrill" is the third release (but only the second full-length album) from L.A. melodic rockers Hurricane, which featured vocal powerhouse Kelly Hansen (who would later go on to front Foreigner). Hurricane's style was somewhere between Warrant and House of Lords. It was hard hitting, but very slick and melodic.



Hurricane - Slave To The Thrill (1990) [Japan 1st Press]


Track Listing

01. Reign Of Love (4:48)
02. Next To You (3:37)
03. Young Man (3:54)
04. Dance Little Sister (4:53)
05. Don't Wanna Dream (5:02)
06. Temptation (3:14)
07. 10,000 Years (5:44)
08. In The Fire (3:29)
09. Let It Slide (4:37)
10. Lock Me Up (3:43)
11. Smiles Like A Child (4:15)

Produced by Michael James Jackson

The Band

• Kelly Hansen - Lead Vocals
• Jay Schellen - Drums, Percussion And Vocals
• Tony Cavazo - Bass And Vocals
• Doug Aldrich - Guitars And Vocals

Exact Audio Copy V1.0 beta 3 from 29. August 2011

Отчёт EAC об извлечении, выполненном 23. августа 2014, 19:02

Hurricane / Slave To The Thrill

Дисковод: PLEXTOR BD-R PX-B950SA Adapter: 0 ID: 1

Режим чтения : Скоростной

Коррекция смещения при чтении : 6
Способность читать области Lead-in и Lead-out : Нет
Заполнение пропущенных сэмплов тишиной : Да
Удаление блоков с тишиной в начале и конце : Нет
При вычислениях CRC использовались нулевые сэмплы : Да
Интерфейс : Встроенный Win32-интерфейс для Win NT/2000

Выходной формат : Пользовательский кодировщик
Выбранный битрейт : 768 kBit/s
Качество : Высокий
Добавление ID3-тега : Нет
Утилита сжатия : C:\Program Files (x86)\Exact Audio Copy\FLAC\FLAC.EXE
Дополнительные параметры : -8 -V -T "ARTIST=%artist%" -T "TITLE=%title%" -T "ALBUM=%albumtitle%" -T "DATE=%year%" -T "TRACKNUMBER=%tracknr%" -T "GENRE=%genre%" -T "COMMENT=%comment%" -T "BAND=%albuminterpret%" -T "ALBUMARTIST=%albuminterpret%" -T "COMPOSER=%composer%" %haslyrics%–tag-from-file=LYRICS="%lyricsfile%"%haslyrics% -T "DISCNUMBER=%cdnumber%" -T "TOTALDISCS=%totalcds%" -T "TOTALTRACKS=%numtracks%" %hascover%–picture="%coverfile%"%hascover% %source% -o %dest%


TOC извлечённого CD

Трек | Старт | Длительность | Начальный сектор | Конечный сектор
––––––––––––––––––––––––––––––––––-
1 | 0:00.00 | 4:48.22 | 0 | 21621
2 | 4:48.22 | 3:37.15 | 21622 | 37911
3 | 8:25.37 | 3:53.43 | 37912 | 55429
4 | 12:19.05 | 4:52.62 | 55430 | 77391
5 | 17:11.67 | 5:02.08 | 77392 | 100049
6 | 22:14.00 | 3:13.60 | 100050 | 114584
7 | 25:27.60 | 5:44.02 | 114585 | 140386
8 | 31:11.62 | 3:29.30 | 140387 | 156091
9 | 34:41.17 | 4:37.13 | 156092 | 176879
10 | 39:18.30 | 3:42.50 | 176880 | 193579
11 | 43:01.05 | 4:14.67 | 193580 | 212696


Характеристики диапазона извлечения и сообщения об ошибках

Выбранный диапазон

Имя файла G:\RIP\hURRicaNE 1991 Japanese Pressing FLAC\Hurricane - Slave To The Thrill.wav

Пиковый уровень 85.3 %
Скорость извлечения 27.7 X
CRC теста C48A6964
CRC копии C48A6964
Копирование… OK

Ошибок не произошло


AccurateRip: сводка

Трек 1 : извлечено точно (доверие 1) [8648073A] (AR v1)
Трек 2 : извлечено точно (доверие 1) [6C326C81] (AR v1)
Трек 3 : извлечено точно (доверие 1) [5EF6146F] (AR v1)
Трек 4 : извлечено точно (доверие 1) [58961144] (AR v1)
Трек 5 : извлечено точно (доверие 1) [2187704E] (AR v1)
Трек 6 : извлечено точно (доверие 1) [0D63F831] (AR v1)
Трек 7 : извлечено точно (доверие 1) [819051CB] (AR v1)
Трек 8 : извлечено точно (доверие 1) [7FCA5AE8] (AR v1)
Трек 9 : извлечено точно (доверие 1) [43418FA0] (AR v1)
Трек 10 : извлечено точно (доверие 1) [BBB583BD] (AR v1)
Трек 11 : извлечено точно (доверие 1) [81C216D7] (AR v1)

Все треки извлечены точно

Конец отчёта

==== Контрольная сумма отчёта B2E625CF0BE25EAD88B29B7BAF0ACBDFDAB052D52E4F791AC8F7B9699AFC3A38 ====


Many thanks to the original uploader: alzal

See also:
Hurricane 1988 Over The Edge [Japan 1st Press]