Subcategories

Ian Allen - Nova's Lounge (2005)

Posted By: Designol
Ian Allen - Nova's Lounge (2005)

Ian Allen - Nova's Lounge (2005)
EAC | FLAC | Image (Cue&Log) ~ 266 Mb | Mp3 (CBR320) ~ 120 Mb | Scans included
Downtempo, Lounge, Jazz-House | Label: Nova 53 | # NR0244 | Time: 00:50:20

It's not a surprise that professional athletes occasionally make records: back in the late '70s, Denver Broncos running back Jon Keyworth made a terrible soft rock album called Keys during the team's brief pre-John Elway heyday, and during their 2004 World Series season both pitcher Bronson Arroyo and general manager Theo Epstein of the Boston Red Sox were gigging around town with their own bands. However, there are two big surprises about the debut album from Ian Allen, a minor journeyman player for the New York Giants, Philadelphia Eagles, and Arizona Cardinals: rather than the usual lame jock-rock, this is mellow, loungey downtempo electronica. Also, it's really quite good! Allen's tastes run toward skittering drum machines and house beats, but there's also a languid, jazzy quality to most of Nova's Lounge, and that tension keeps the record from drifting too far into shapeless ambience. Allen is a canny synthesist who doesn't stick with one set of influences for very long, preferring to layer a variety of sounds and beats into an enjoyable whole.

Review by Stewart Mason, Allmusic.com

Tracklist:

01. Intro (03:42)
02. Change Is Inevitable (06:44)
03. In Sync (04:25)
04. At Night (05:30)
05. Meet Me Halfway (02:09)
06. Kabena (02:03)
07. In Zone (05:21)
08. Soho Movement (07:32)
09. 360 (05:12)
10. M.I.A.'s (03:49)
11. Perky (bonus track) (03:38)


Exact Audio Copy V1.0 beta 1 from 15. November 2010

EAC extraction logfile from 23. August 2011, 20:24

Ian Allen / Nova's Lounge

Used drive : ASUS CRW-5232AX Adapter: 4 ID: 1

Read mode : Secure
Utilize accurate stream : Yes
Defeat audio cache : Yes
Make use of C2 pointers : No

Read offset correction : 6
Overread into Lead-In and Lead-Out : No
Fill up missing offset samples with silence : Yes
Delete leading and trailing silent blocks : No
Null samples used in CRC calculations : Yes
Used interface : Native Win32 interface for Win NT & 2000

Used output format : User Defined Encoder
Selected bitrate : 768 kBit/s
Quality : High
Add ID3 tag : Yes
Command line compressor : C:\Program Files\Exact Audio Copy\FLAC\FLAC.EXE
Additional command line options : -8 -V -T "ARTIST=%a" -T "TITLE=%t" -T "ALBUM=%g" -T "DATE=%y" -T "TRACKNUMBER=%n" -T "GENRE=%m" -T "COMMENT=%e" %j–picture="%i"%j %s -o %d


TOC of the extracted CD

Track | Start | Length | Start sector | End sector
––––––––––––––––––––––––––––-
1 | 0:00.00 | 3:42.11 | 0 | 16660
2 | 3:42.11 | 6:44.59 | 16661 | 47019
3 | 10:26.70 | 4:25.15 | 47020 | 66909
4 | 14:52.10 | 5:30.51 | 66910 | 91710
5 | 20:22.61 | 2:09.34 | 91711 | 101419
6 | 22:32.20 | 2:03.00 | 101420 | 110644
7 | 24:35.20 | 5:21.40 | 110645 | 134759
8 | 29:56.60 | 7:32.37 | 134760 | 168696
9 | 37:29.22 | 5:12.30 | 168697 | 192126
10 | 42:41.52 | 3:59.06 | 192127 | 210057
11 | 46:40.58 | 3:38.66 | 210058 | 226473


Range status and errors

Selected range

Filename D:\TMP_MUSIC\Ian Allen - Nova's Lounge (2005) HQShare by egotrsh\Ian Allen - Nova's Lounge.wav

Peak level 100.0 %
Extraction speed 0.1 X
Range quality 100.0 %
Test CRC 99AB87F9
Copy CRC 99AB87F9
Copy OK

No errors occurred


AccurateRip summary

Track 1 accurately ripped (confidence 1) [16110558]
Track 2 accurately ripped (confidence 1) [3C148DD7]
Track 3 accurately ripped (confidence 1) [5B3D27F4]
Track 4 accurately ripped (confidence 1) [216C1E38]
Track 5 accurately ripped (confidence 1) [92470205]
Track 6 accurately ripped (confidence 1) [D7147139]
Track 7 accurately ripped (confidence 1) [411984E5]
Track 8 accurately ripped (confidence 1) [07E83071]
Track 9 accurately ripped (confidence 1) [EE32E8AD]
Track 10 accurately ripped (confidence 1) [6C6746B3]
Track 11 accurately ripped (confidence 1) [EB78C490]

All tracks accurately ripped

End of status report

==== Log checksum CEA2529187C042C137C44678BB76F254AF0CD2C62F8857D4470DDAB8EE5C3798 ====

foobar2000 1.2 / Dynamic Range Meter 1.1.1
log date: 2013-07-27 20:59:53

––––––––––––––––––––––––––––––––––––––––
Analyzed: Ian Allen / Nova's Lounge
––––––––––––––––––––––––––––––––––––––––

DR Peak RMS Duration Track
––––––––––––––––––––––––––––––––––––––––
DR8 -0.26 dB -8.97 dB 3:42 01-Intro
DR7 0.00 dB -8.62 dB 6:45 02-Change Is Inevitable
DR4 -0.10 dB -7.09 dB 4:25 03-In Sync
DR9 0.00 dB -9.49 dB 5:31 04-At Night
DR14 0.00 dB -14.88 dB 2:09 05-Meet Me Halfway
DR9 -0.13 dB -9.66 dB 2:03 06-Kabena
DR9 -0.22 dB -9.81 dB 5:22 07-In Zone
DR9 0.00 dB -10.14 dB 7:32 08-Soho Movement
DR8 -0.19 dB -8.97 dB 5:12 09-360
DR10 0.00 dB -10.77 dB 3:59 10-M.I.A.'s
DR12 0.00 dB -13.70 dB 3:39 11-Perky (bonus track)
––––––––––––––––––––––––––––––––––––––––

Number of tracks: 11
Official DR value: DR9

Samplerate: 44100 Hz
Channels: 2
Bits per sample: 16
Bitrate: 724 kbps
Codec: FLAC
================================================================================

Ian Allen - Nova's Lounge (2005)

Ian Allen - Nova's Lounge (2005)

All thanks to original releaser - egotex

More interesting music in My Blog