Subcategories

Ian Gillan - The Singles Box (2007, 11CD)

Posted By: apocalipsys2014
Ian Gillan - The Singles Box (2007, 11CD)

Ian Gillan - The Singles Box (2007)
Year & Label: 2007 Edsel Records | CD#: EDBS 4002
Flac (image) | Artwork (JPG, 300 dpi) | File-hosts: HotFile & FileSonic
Hard Rock | FLAC: ~900 MB | Artwork: 75 MB | 5% WinRAR Recovery

EAC Secure-rip with LOG+CUE+COVERS | Source: torrent
Remasrtered, 11CD with rare B-sides (without DVD)

Ian Gillan - The Singles Box (2007, 11CD)

Well now, following on from the remastered, bonus track enhanced albums that came out on Edsel earlier this year, the same company are bringing us "The Singles + The Promo Videos". So, what you're getting is a 12 disc box set comprising reproductions of 11 Gillan singles plus a DVD containing seven promo videos. So why would you want it? Well, it's rather obvious isn't it? You get all those Gillan 7" singles you never play in a shiny cardboard box, all ready to play in your CD player.

Spanning the three years from "Mr Universe" to the demise of Gillan (the band), the singles are all faithfully reproduced (ish). I mean they don't give you the fancy fold out sleeves or story booklets, and they don't (and this is important) contain any unavailable songs. The remastered albums swept up the single tracks in amongst all the other bonus tracks. Unless you include a couple of single edits. And I don't. So don't start whingeing about "ripping off the fans, man". It's obvious what it is, so don't buy it, if you don't want it. And there are, so I'm told, only 3,000 of them being issued, so you may want to grab one for future Ebay sales.

It's really a collection for collectors, or folks too lazy to buy up the original versions at their friendly, local record fair. And it probably works out cheaper than buying up the vinyl, even if Gillan singles are usually in the pound box. Of course, you also get the promo videos on a handy DVD, to save you all that YouTube downloading. Which is very amusing in a 'my God, was that what passed for a video in those days?', kind of way. I mean, a band looking like Gillan wouldn't get through the door at a record company nowadays.

Mr Gillan has graciously contributed some tales from back in the days to go with the workmanlike booklet, and it did bring back hazy, warm memories of rushing down to Haymarket on the day of release to snaffle them up. Especially with the promo stickers reproduced as well! Was it really a whole £1.15 for the 'No Laughing In Heaven EP'? That was 16p over my budget back then, you know. The B-sides are where the fun lies, and work better in this format than as bonus tracks, and I still remember the bother I got into for singing 'Your Sister's On My List' just that little bit too loudly!

~ www.deep-purple.net
Ian Gillan Official Homepage
Ian Gillan Wikipedia
Ian Gillan at MySpace.com

Musicians:

Vocals : Ian Gillan
Bass : John McCoy
Keyboards : Colin Towns
Drums : Mick Underwood
Guitar : Bernie Torme (discs 1-7)
Guitar : Janick Gers (discs 8-11)

Prjest co-ordinator - Val Jennings
CD-mastering - Alchemy Soho.
Originals singles sleeves - Val Jennings, Hugh Gilmour

Ian Gillan - The Singles Box (2007, 11CD)

Ian Gillan - Vengeance (CD 1)
Original: 1979 | FLAC: 80 MB | Artwork: 5 MB

Track List:
01. Vengeance [3:38]
02. Smoke On The Water (Live At Kingsway Recorders) [8:29]

Exact Audio Copy V0.99 prebeta 5 from 4. May 2009

Отчёт EAC об извлечении, выполненном 22. января 2011, 22:59

Gillan / Vengeance

Дисковод: HL-DT-STDVDRAM GSA-H60N Adapter: 2 ID: 0

Режим чтения : Достоверность
Использование точного потока : Да
Отключение кэша аудио : Да
Использование указателей C2 : Нет

Коррекция смещения при чтении : 667
Способность читать области Lead-in и Lead-out : Нет
Заполнение пропущенных сэмплов тишиной : Да
Удаление блоков с тишиной в начале и конце : Нет
При вычислениях CRC использовались нулевые сэмплы : Да
Интерфейс : Встроенный Win32-интерфейс для Win NT/2000

Выходной формат : Внутренние WAV-операции
Формат сэмплов : 44.100 Гц; 16 бит; стерео


TOC извлечённого CD

Трек | Старт | Длительность | Начальный сектор | Конечный сектор
––––––––––––––––––––––––––––––––––-
1 | 0:00.00 | 3:37.65 | 0 | 16339
2 | 3:37.65 | 8:29.00 | 16340 | 54514


Характеристики диапазона извлечения и сообщения об ошибках

Выбранный диапазон

Имя файла C:\Documents and Settings\Администратор\Рабочий стол\Lossless Galaxy Rip by ALLexxess\2007 The Singles + The Promo Videos (11CD + DVD Box Set Edsel Records)\CD1 Vengeance\Gillan - Vengeance.wav

Пиковый уровень 94.5 %
Качество диапазона 100.0 %
CRC теста 2A832A21
CRC копии 2A832A21
Копирование… OK

Ошибок не произошло


AccurateRip: сводка

Трек 1 нет в базе данных
Трек 2 нет в базе данных

Ни одного трека нет в базе AccurateRip

Конец отчёта



Ian Gillan - The Singles Box (2007, 11CD)

Ian Gillan - Sleeping On The Job (CD 2)
Original: 1980 | FLAC: 50 MB | Artwork: 5 MB

Track List:
01. Sleeping On The Job [3:15]
02. Higher And Higher [3:44]

Exact Audio Copy V0.99 prebeta 5 from 4. May 2009

Отчёт EAC об извлечении, выполненном 22. января 2011, 23:25

Gillan / Sleeping On The Job

Дисковод: HL-DT-STDVDRAM GSA-H60N Adapter: 2 ID: 0

Режим чтения : Достоверность
Использование точного потока : Да
Отключение кэша аудио : Да
Использование указателей C2 : Нет

Коррекция смещения при чтении : 667
Способность читать области Lead-in и Lead-out : Нет
Заполнение пропущенных сэмплов тишиной : Да
Удаление блоков с тишиной в начале и конце : Нет
При вычислениях CRC использовались нулевые сэмплы : Да
Интерфейс : Встроенный Win32-интерфейс для Win NT/2000

Выходной формат : Внутренние WAV-операции
Формат сэмплов : 44.100 Гц; 16 бит; стерео


TOC извлечённого CD

Трек | Старт | Длительность | Начальный сектор | Конечный сектор
––––––––––––––––––––––––––––––––––-
1 | 0:00.00 | 3:15.22 | 0 | 14646
2 | 3:15.22 | 3:43.43 | 14647 | 31414


Характеристики диапазона извлечения и сообщения об ошибках

Выбранный диапазон

Имя файла C:\Documents and Settings\Администратор\Рабочий стол\Lossless Galaxy Rip by ALLexxess\2007 The Singles + The Promo Videos (11CD + DVD Box Set Edsel Records)\CD2 Sleeping On The Job\Gillan - Sleeping On The Job.wav

Пиковый уровень 94.5 %
Качество диапазона 100.0 %
CRC теста ECEE8A88
CRC копии ECEE8A88
Копирование… OK

Ошибок не произошло


AccurateRip: сводка

Трек 1 нет в базе данных
Трек 2 нет в базе данных

Ни одного трека нет в базе AccurateRip

Конец отчёта



Ian Gillan - The Singles Box (2007, 11CD)

Ian Gillan - No Easy Way (CD 3)
Original: 1980 | FLAC: 55 MB | Artwork: 5 MB

Track List:
01. No Easy Way (Single Edit) [3:17]
02. Handles On Her Hips [2:12]
03. I Might As Well Go Home (Mystic) [2:19]

Exact Audio Copy V0.99 prebeta 5 from 4. May 2009

Отчёт EAC об извлечении, выполненном 22. января 2011, 23:56

Gillan / No Easy Way

Дисковод: HL-DT-STDVDRAM GSA-H60N Adapter: 2 ID: 0

Режим чтения : Достоверность
Использование точного потока : Да
Отключение кэша аудио : Да
Использование указателей C2 : Нет

Коррекция смещения при чтении : 667
Способность читать области Lead-in и Lead-out : Нет
Заполнение пропущенных сэмплов тишиной : Да
Удаление блоков с тишиной в начале и конце : Нет
При вычислениях CRC использовались нулевые сэмплы : Да
Интерфейс : Встроенный Win32-интерфейс для Win NT/2000

Выходной формат : Внутренние WAV-операции
Формат сэмплов : 44.100 Гц; 16 бит; стерео


TOC извлечённого CD

Трек | Старт | Длительность | Начальный сектор | Конечный сектор
––––––––––––––––––––––––––––––––––-
1 | 0:00.00 | 3:16.56 | 0 | 14755
2 | 3:16.56 | 2:11.74 | 14756 | 24654
3 | 5:28.55 | 2:18.67 | 24655 | 35071


Характеристики диапазона извлечения и сообщения об ошибках

Выбранный диапазон

Имя файла C:\Documents and Settings\Администратор\Рабочий стол\Lossless Galaxy Rip by ALLexxess\2007 The Singles + The Promo Videos (11CD + DVD Box Set Edsel Records)\CD3 No Easy Way\Gillan - No Easy Way.wav

Пиковый уровень 99.9 %
Качество диапазона 100.0 %
CRC теста DE0FD192
CRC копии DE0FD192
Копирование… OK

Ошибок не произошло


AccurateRip: сводка

Трек 1 нет в базе данных
Трек 2 нет в базе данных
Трек 3 нет в базе данных

Ни одного трека нет в базе AccurateRip

Конец отчёта




Ian Gillan - The Singles Box (2007, 11CD)

Ian Gillan - Trourle (CD 4)
Original: 1980 | FLAC: 180 MB | Artwork: 5 MB

Track List:
01. Trouble [2:41]
02. Your Sister's On My List [4:08]
03. Mr. Universe (Live) [7:15]
04. Vengeance (Live) [4:26]
05. Smoke On The Water (Live) [8:56]

Exact Audio Copy V0.99 prebeta 5 from 4. May 2009

Отчёт EAC об извлечении, выполненном 23. января 2011, 0:33

Gillan / Trouble

Дисковод: HL-DT-STDVDRAM GSA-H60N Adapter: 2 ID: 0

Режим чтения : Достоверность
Использование точного потока : Да
Отключение кэша аудио : Да
Использование указателей C2 : Нет

Коррекция смещения при чтении : 667
Способность читать области Lead-in и Lead-out : Нет
Заполнение пропущенных сэмплов тишиной : Да
Удаление блоков с тишиной в начале и конце : Нет
При вычислениях CRC использовались нулевые сэмплы : Да
Интерфейс : Встроенный Win32-интерфейс для Win NT/2000

Выходной формат : Внутренние WAV-операции
Формат сэмплов : 44.100 Гц; 16 бит; стерео


TOC извлечённого CD

Трек | Старт | Длительность | Начальный сектор | Конечный сектор
––––––––––––––––––––––––––––––––––-
1 | 0:00.00 | 2:41.18 | 0 | 12092
2 | 2:41.18 | 4:08.15 | 12093 | 30707
3 | 6:49.33 | 7:14.57 | 30708 | 63314
4 | 14:04.15 | 4:26.12 | 63315 | 83276
5 | 18:30.27 | 8:55.39 | 83277 | 123440


Характеристики диапазона извлечения и сообщения об ошибках

Выбранный диапазон

Имя файла C:\Documents and Settings\Администратор\Рабочий стол\Lossless Galaxy Rip by ALLexxess\2007 The Singles + The Promo Videos (11CD + DVD Box Set Edsel Records)\CD4 Trouble\Gillan - Trouble.wav

Пиковый уровень 98.6 %
Качество диапазона 100.0 %
CRC теста 5900ADED
CRC копии 5900ADED
Копирование… OK

Ошибок не произошло


AccurateRip: сводка

Трек 1 нет в базе данных
Трек 2 нет в базе данных
Трек 3 нет в базе данных
Трек 4 нет в базе данных
Трек 5 нет в базе данных

Ни одного трека нет в базе AccurateRip

Конец отчёта




Ian Gillan - The Singles Box (2007, 11CD)

Ian Gillan - Mutually Assured Destruction (CD 5)
Original: 1981 | FLAC: 60 MB | Artwork: 5 MB

Track List:
01. Mutually Assured Destruction [3:15]
02. The Maelstrom [5:17]

Exact Audio Copy V0.99 prebeta 5 from 4. May 2009

Отчёт EAC об извлечении, выполненном 23. января 2011, 0:59

Gillan / Mutually Assured Destruction

Дисковод: HL-DT-STDVDRAM GSA-H60N Adapter: 2 ID: 0

Режим чтения : Достоверность
Использование точного потока : Да
Отключение кэша аудио : Да
Использование указателей C2 : Нет

Коррекция смещения при чтении : 667
Способность читать области Lead-in и Lead-out : Нет
Заполнение пропущенных сэмплов тишиной : Да
Удаление блоков с тишиной в начале и конце : Нет
При вычислениях CRC использовались нулевые сэмплы : Да
Интерфейс : Встроенный Win32-интерфейс для Win NT/2000

Выходной формат : Внутренние WAV-операции
Формат сэмплов : 44.100 Гц; 16 бит; стерео


TOC извлечённого CD

Трек | Старт | Длительность | Начальный сектор | Конечный сектор
––––––––––––––––––––––––––––––––––-
1 | 0:00.00 | 3:14.61 | 0 | 14610
2 | 3:14.61 | 5:17.29 | 14611 | 38414


Характеристики диапазона извлечения и сообщения об ошибках

Выбранный диапазон

Имя файла C:\Documents and Settings\Администратор\Рабочий стол\Lossless Galaxy Rip by ALLexxess\2007 The Singles + The Promo Videos (11CD + DVD Box Set Edsel Records)\CD5 Mutually Assured Destruction\Gillan - Mutually Assured Destruction.wav

Пиковый уровень 98.6 %
Качество диапазона 99.9 %
CRC теста A050E605
CRC копии A050E605
Копирование… OK

Ошибок не произошло


AccurateRip: сводка

Трек 1 нет в базе данных
Трек 2 нет в базе данных

Ни одного трека нет в базе AccurateRip

Конец отчёта




Ian Gillan - The Singles Box (2007, 11CD)

Ian Gillan - New Orleans (CD 6)
Original: 1981 | FLAC: 55 MB | Artwork: 5 MB

Track List:
01. New Orleans [2:42]
02. Take A Hold Of Yourself [4:42]

Exact Audio Copy V0.99 prebeta 5 from 4. May 2009

Отчёт EAC об извлечении, выполненном 23. января 2011, 1:18

Gillan / New Orleans

Дисковод: HL-DT-STDVDRAM GSA-H60N Adapter: 2 ID: 0

Режим чтения : Достоверность
Использование точного потока : Да
Отключение кэша аудио : Да
Использование указателей C2 : Нет

Коррекция смещения при чтении : 667
Способность читать области Lead-in и Lead-out : Нет
Заполнение пропущенных сэмплов тишиной : Да
Удаление блоков с тишиной в начале и конце : Нет
При вычислениях CRC использовались нулевые сэмплы : Да
Интерфейс : Встроенный Win32-интерфейс для Win NT/2000

Выходной формат : Внутренние WAV-операции
Формат сэмплов : 44.100 Гц; 16 бит; стерео


TOC извлечённого CD

Трек | Старт | Длительность | Начальный сектор | Конечный сектор
––––––––––––––––––––––––––––––––––-
1 | 0:00.00 | 2:41.59 | 0 | 12133
2 | 2:41.59 | 4:41.50 | 12134 | 33258


Характеристики диапазона извлечения и сообщения об ошибках

Выбранный диапазон

Имя файла C:\Documents and Settings\Администратор\Рабочий стол\Lossless Galaxy Rip by ALLexxess\2007 The Singles + The Promo Videos (11CD + DVD Box Set Edsel Records)\CD6 New Orleans\Gillan - New Orleans.wav

Пиковый уровень 98.6 %
Качество диапазона 100.0 %
CRC теста 4779CA81
CRC копии 4779CA81
Копирование… OK

Ошибок не произошло


AccurateRip: сводка

Трек 1 нет в базе данных
Трек 2 нет в базе данных

Ни одного трека нет в базе AccurateRip

Конец отчёта



Ian Gillan - The Singles Box (2007, 11CD)

Ian Gillan - No Laughing In Heaven (CD 7)
Original: 1981 | FLAC: 90 MB | Artwork: 5 MB

Track List:
01. No Laughing In Heaven (Single Edit) [3:17]
02. One For The Road [3:02]
03. Lucille [2:39]
04. Bad News [3:06]

Exact Audio Copy V0.99 prebeta 5 from 4. May 2009

Отчёт EAC об извлечении, выполненном 23. января 2011, 1:36

Gillan / No Laughing In Heaven - Lucille

Дисковод: HL-DT-STDVDRAM GSA-H60N Adapter: 2 ID: 0

Режим чтения : Достоверность
Использование точного потока : Да
Отключение кэша аудио : Да
Использование указателей C2 : Нет

Коррекция смещения при чтении : 667
Способность читать области Lead-in и Lead-out : Нет
Заполнение пропущенных сэмплов тишиной : Да
Удаление блоков с тишиной в начале и конце : Нет
При вычислениях CRC использовались нулевые сэмплы : Да
Интерфейс : Встроенный Win32-интерфейс для Win NT/2000

Выходной формат : Внутренние WAV-операции
Формат сэмплов : 44.100 Гц; 16 бит; стерео


TOC извлечённого CD

Трек | Старт | Длительность | Начальный сектор | Конечный сектор
––––––––––––––––––––––––––––––––––-
1 | 0:00.00 | 3:17.05 | 0 | 14779
2 | 3:17.05 | 3:02.06 | 14780 | 28435
3 | 6:19.11 | 2:39.08 | 28436 | 40368
4 | 8:58.19 | 3:05.68 | 40369 | 54311


Характеристики диапазона извлечения и сообщения об ошибках

Выбранный диапазон

Имя файла C:\Documents and Settings\Администратор\Рабочий стол\Lossless Galaxy Rip by ALLexxess\2007 The Singles + The Promo Videos (11CD + DVD Box Set Edsel Records)\CD7\Gillan - No Laughing In Heaven - Lucille.wav

Пиковый уровень 99.4 %
Качество диапазона 100.0 %
CRC теста 09A2F94D
CRC копии 09A2F94D
Копирование… OK

Ошибок не произошло


AccurateRip: сводка

Трек 1 нет в базе данных
Трек 2 нет в базе данных
Трек 3 нет в базе данных
Трек 4 нет в базе данных

Ни одного трека нет в базе AccurateRip

Конец отчёта



Ian Gillan - The Singles Box (2007, 11CD)

Ian Gillan - Nightmare (CD 8)
Original: 1981 | FLAC: 60 MB | Artwork: 5 MB

Track List:
01. Nightmare [3:18]
02. Bite The Bullet (Live) [5:26]

Exact Audio Copy V0.99 prebeta 5 from 4. May 2009

Отчёт EAC об извлечении, выполненном 23. января 2011, 12:04

Gillan / Nightmare

Дисковод: HL-DT-STDVDRAM GSA-H60N Adapter: 2 ID: 0

Режим чтения : Достоверность
Использование точного потока : Да
Отключение кэша аудио : Да
Использование указателей C2 : Нет

Коррекция смещения при чтении : 667
Способность читать области Lead-in и Lead-out : Нет
Заполнение пропущенных сэмплов тишиной : Да
Удаление блоков с тишиной в начале и конце : Нет
При вычислениях CRC использовались нулевые сэмплы : Да
Интерфейс : Встроенный Win32-интерфейс для Win NT/2000

Выходной формат : Внутренние WAV-операции
Формат сэмплов : 44.100 Гц; 16 бит; стерео


TOC извлечённого CD

Трек | Старт | Длительность | Начальный сектор | Конечный сектор
––––––––––––––––––––––––––––––––––-
1 | 0:00.00 | 3:17.41 | 0 | 14815
2 | 3:17.41 | 5:25.51 | 14816 | 39241


Характеристики диапазона извлечения и сообщения об ошибках

Выбранный диапазон

Имя файла C:\Documents and Settings\Администратор\Рабочий стол\Lossless Galaxy Rip by ALLexxess\2007 The Singles + The Promo Videos (11CD + DVD Box Set Edsel Records)\CD8 Nightmare\Gillan - Nightmare.wav

Пиковый уровень 94.4 %
Качество диапазона 100.0 %
CRC теста 93BD05FE
CRC копии 93BD05FE
Копирование… OK

Ошибок не произошло


AccurateRip: сводка

Трек 1 нет в базе данных
Трек 2 нет в базе данных

Ни одного трека нет в базе AccurateRip

Конец отчёта



Ian Gillan - The Singles Box (2007, 11CD)

Ian Gillan - Restless (CD 9)
Original: 1982 | FLAC: 70 MB | Artwork: 5 MB

Track List:
01. Restless [3:22]
02. On The Rocks (Live) [6:35]

Exact Audio Copy V0.99 prebeta 5 from 4. May 2009

Отчёт EAC об извлечении, выполненном 23. января 2011, 12:31

Gillan / Restless

Дисковод: HL-DT-STDVDRAM GSA-H60N Adapter: 2 ID: 0

Режим чтения : Достоверность
Использование точного потока : Да
Отключение кэша аудио : Да
Использование указателей C2 : Нет

Коррекция смещения при чтении : 667
Способность читать области Lead-in и Lead-out : Нет
Заполнение пропущенных сэмплов тишиной : Да
Удаление блоков с тишиной в начале и конце : Нет
При вычислениях CRC использовались нулевые сэмплы : Да
Интерфейс : Встроенный Win32-интерфейс для Win NT/2000

Выходной формат : Внутренние WAV-операции
Формат сэмплов : 44.100 Гц; 16 бит; стерео


TOC извлечённого CD

Трек | Старт | Длительность | Начальный сектор | Конечный сектор
––––––––––––––––––––––––––––––––––-
1 | 0:00.00 | 3:21.47 | 0 | 15121
2 | 3:21.47 | 6:34.45 | 15122 | 44716


Характеристики диапазона извлечения и сообщения об ошибках

Выбранный диапазон

Имя файла C:\Documents and Settings\Администратор\Рабочий стол\Lossless Galaxy Rip by ALLexxess\2007 The Singles + The Promo Videos (11CD + DVD Box Set Edsel Records)\CD9 Restless\Gillan - Restless.wav

Пиковый уровень 94.4 %
Качество диапазона 100.0 %
CRC теста 7AC9BFCC
CRC копии 7AC9BFCC
Копирование… OK

Ошибок не произошло


AccurateRip: сводка

Трек 1 нет в базе данных
Трек 2 нет в базе данных

Ни одного трека нет в базе AccurateRip

Конец отчёта



Ian Gillan - The Singles Box (2007, 11CD)

Ian Gillan - Living For The City (CD 10)
Original: 1982 | FLAC: 90 MB | Artwork: 5 MB

Track List:
01. Living For The City [4:24]
02. Breaking Chains [3:30]
03. Purple Sky [3:27]

Exact Audio Copy V0.99 prebeta 5 from 4. May 2009

Отчёт EAC об извлечении, выполненном 23. января 2011, 12:50

Gillan / Living For The City

Дисковод: HL-DT-STDVDRAM GSA-H60N Adapter: 2 ID: 0

Режим чтения : Достоверность
Использование точного потока : Да
Отключение кэша аудио : Да
Использование указателей C2 : Нет

Коррекция смещения при чтении : 667
Способность читать области Lead-in и Lead-out : Нет
Заполнение пропущенных сэмплов тишиной : Да
Удаление блоков с тишиной в начале и конце : Нет
При вычислениях CRC использовались нулевые сэмплы : Да
Интерфейс : Встроенный Win32-интерфейс для Win NT/2000

Выходной формат : Внутренние WAV-операции
Формат сэмплов : 44.100 Гц; 16 бит; стерео


TOC извлечённого CD

Трек | Старт | Длительность | Начальный сектор | Конечный сектор
––––––––––––––––––––––––––––––––––-
1 | 0:00.00 | 4:24.07 | 0 | 19806
2 | 4:24.07 | 3:30.13 | 19807 | 35569
3 | 7:54.20 | 3:26.56 | 35570 | 51075


Характеристики диапазона извлечения и сообщения об ошибках

Выбранный диапазон

Имя файла C:\Documents and Settings\Администратор\Рабочий стол\Lossless Galaxy Rip by ALLexxess\2007 The Singles + The Promo Videos (11CD + DVD Box Set Edsel Records)\CD10 Living For The City\Gillan - Living For The City.wav

Пиковый уровень 99.8 %
Качество диапазона 100.0 %
CRC теста 607417DA
CRC копии 607417DA
Копирование… OK

Ошибок не произошло


AccurateRip: сводка

Трек 1 нет в базе данных
Трек 2 нет в базе данных
Трек 3 нет в базе данных

Ни одного трека нет в базе AccurateRip

Конец отчёта



Ian Gillan - The Singles Box (2007, 11CD)

Ian Gillan - Long Gone (CD 11)
Original: 1982 | FLAC: 60 MB | Artwork: 5 MB

Track List:
01. Long Gone [3:55]
02. Fuji [5:23]

Exact Audio Copy V0.99 prebeta 5 from 4. May 2009

Отчёт EAC об извлечении, выполненном 23. января 2011, 13:07

Gillan / Long Gone

Дисковод: HL-DT-STDVDRAM GSA-H60N Adapter: 2 ID: 0

Режим чтения : Достоверность
Использование точного потока : Да
Отключение кэша аудио : Да
Использование указателей C2 : Нет

Коррекция смещения при чтении : 667
Способность читать области Lead-in и Lead-out : Нет
Заполнение пропущенных сэмплов тишиной : Да
Удаление блоков с тишиной в начале и конце : Нет
При вычислениях CRC использовались нулевые сэмплы : Да
Интерфейс : Встроенный Win32-интерфейс для Win NT/2000

Выходной формат : Внутренние WAV-операции
Формат сэмплов : 44.100 Гц; 16 бит; стерео


TOC извлечённого CD

Трек | Старт | Длительность | Начальный сектор | Конечный сектор
––––––––––––––––––––––––––––––––––-
1 | 0:00.00 | 3:55.25 | 0 | 17649
2 | 3:55.25 | 5:23.05 | 17650 | 41879


Характеристики диапазона извлечения и сообщения об ошибках

Выбранный диапазон

Имя файла C:\Documents and Settings\Администратор\Рабочий стол\Lossless Galaxy Rip by ALLexxess\2007 The Singles + The Promo Videos (11CD + DVD Box Set Edsel Records)\CD11 Long Gone\Gillan - Long Gone.wav

Пиковый уровень 99.8 %
Качество диапазона 100.0 %
CRC теста 4B69754C
CRC копии 4B69754C
Копирование… OK

Ошибок не произошло


AccurateRip: сводка

Трек 1 нет в базе данных
Трек 2 нет в базе данных

Ни одного трека нет в базе AccurateRip

Конец отчёта


Flac, image + artwork at HotFile.com
CD1 | CD2 | CD3 | CD4 | CD5 | CD6
CD7 | CD8 | CD9 | CD10 | CD11 | Box-Covers

––––-

Flac, image + artwork at FileSonic.com
CD1 | CD2 | CD3 | CD4 | CD5 | CD6
CD7 | CD8 | CD9 | CD10 | CD11 | Box-Covers


All links are interchangeable…
Not my rip, not my scan-job. Thx very much to the original uploader!
5% WinRar Recovery Record for all files.
Try before you might buy. Support the artists you like and buy their stuff whenever you can afford it.

***