Subcategories

Ian Gillan - The Definitive Spitfire Collection (2009)

Posted By: uff
Ian Gillan - The Definitive Spitfire Collection (2009)

Ian Gillan - The Definitive Spitfire Collection (2009)
Rock | 1cd | EAC Rip | Flac + Cue + Log | covers
Store For Music SFCD161 | rel: 2009 | 480Mb

2009 collection from the Deep Purple vocalist containing tracks from his solo years with Spitfire Records. Features tracks taken from the albums Naked Thunder (1997), Toolbox (1991), Cherkazoo And Other Stories, Ian Gillan Band- Scarabus and Clear air turbulence, And Gillan & Glover- Accidentally on Purpose. These tracks show Ian at his vocal best across rock and ballad material. This is the Definitive Spitfire Collection of a classic Rock legendary vocalist. ~Amazon

Track listing
01. Money Lender (5:41)
02. Over The Hill (7:22)
03. Scarabus (4:58)
04. Clouds And Rain (4:06)
05. Twin Exhausted (4:11)
06. Gut Reaction (3:46)
07. Mercury High (3:34)
08. Mad Elaine (4:21)
09. Sweet Lolita (3:51)
10. Hang Me Out To Dry (4:05)
11. No More Cane On The Brazo (8:16)
12. Aint That Lovin You Baby (3:45)
13. Trying To Get To You (3:03)
14. Pictures Of Hell (3:58)
15. Via Miami (5:02)
~ (70:00)


Exact Audio Copy V0.99 prebeta 5 from 4. May 2009

Отчёт EAC об извлечении, выполненном 5. июля 2010, 12:14

Ian Gillan / The Definitive Spitfire Collection

Дисковод: ASUS DRW-2014L1 Adapter: 0 ID: 1

Режим чтения : Достоверность
Использование точного потока : Да
Отключение кэша аудио : Да
Использование указателей C2 : Нет

Коррекция смещения при чтении : 6
Способность читать области Lead-in и Lead-out : Нет
Заполнение пропущенных сэмплов тишиной : Да
Удаление блоков с тишиной в начале и конце : Нет
При вычислениях CRC использовались нулевые сэмплы : Да
Интерфейс : Встроенный Win32-интерфейс для Win NT/2000

Выходной формат : Пользовательский кодировщик
Выбранный битрейт : 768 kBit/s
Качество : Высокий
Добавление ID3-тэга : Нет
Утилита сжатия : C:\Program Files\Exact Audio Copy\FLAC\FLAC.EXE
Дополнительные параметры : -8 -V %s


TOC извлечённого CD

Трек | Старт | Длительность | Начальный сектор | Конечный сектор
––––––––––––––––––––––––––––––––––-
1 | 0:00.00 | 5:41.12 | 0 | 25586
2 | 5:41.12 | 7:21.52 | 25587 | 58713
3 | 13:02.64 | 4:57.59 | 58714 | 81047
4 | 18:00.48 | 4:06.05 | 81048 | 99502
5 | 22:06.53 | 4:11.20 | 99503 | 118347
6 | 26:17.73 | 3:46.32 | 118348 | 135329
7 | 30:04.30 | 3:34.37 | 135330 | 151416
8 | 33:38.67 | 4:21.29 | 151417 | 171020
9 | 38:00.21 | 3:50.74 | 171021 | 188344
10 | 41:51.20 | 4:05.02 | 188345 | 206721
11 | 45:56.22 | 8:16.10 | 206722 | 243931
12 | 54:12.32 | 3:44.42 | 243932 | 260773
13 | 57:56.74 | 3:02.52 | 260774 | 274475
14 | 60:59.51 | 3:57.55 | 274476 | 292305
15 | 64:57.31 | 5:02.18 | 292306 | 314973


Характеристики диапазона извлечения и сообщения об ошибках

Выбранный диапазон

Имя файла H:\Ian Gillan - The Definitive Spitfire Collection - 2009 (flac)\Ian Gillan - The Definitive Spitfire Collection.wav

Пиковый уровень 100.0 %
Качество диапазона 100.0 %
CRC теста 6200E3E0
CRC копии 6200E3E0
Копирование… OK

Ошибок не произошло


Конец отчёта



[CUETools log; Date: 2015.09.05. 8:36:02; Version: 2.1.5]
[CTDB TOCID: b02tw7BgvJ35lSWt8qwvOBChQTA-] found.
Track | CTDB Status
1 | (1/1) Accurately ripped
2 | (1/1) Accurately ripped
3 | (1/1) Accurately ripped
4 | (1/1) Accurately ripped
5 | (1/1) Accurately ripped
6 | (1/1) Accurately ripped
7 | (1/1) Accurately ripped
8 | (1/1) Accurately ripped
9 | (1/1) Accurately ripped
10 | (1/1) Accurately ripped
11 | (1/1) Accurately ripped
12 | (1/1) Accurately ripped
13 | (1/1) Accurately ripped
14 | (1/1) Accurately ripped
15 | (1/1) Accurately ripped
[AccurateRip ID: 00280421-01bd8857-e110670f] disk not present in database.

Track Peak [ CRC32 ] [W/O NULL]
– 100,0 [6200E3E0] [E113DAD6]
01 100,0 [5DF5A56E] [A4183CBB]
02 96,1 [6A5461A7] [D6DE203D]
03 87,0 [6E08F621] [DFA3449F]
04 90,0 [EACB5A18] [A4191024]
05 87,0 [E8BC379C] [BA76D46A]
06 97,3 [FD2ADEFE] [6EC05D4D]
07 87,0 [7B0EB94F] [91C7E48F]
08 87,0 [B6630DBB] [58BA182C]
09 100,0 [60A15D54] [BCF4812A]
10 98,9 [1F5FAF81] [D49A3C8C]
11 100,0 [C9F24033] [22C59D73]
12 93,6 [74F1CD24] [0A5994E9]
13 94,3 [148742F6] [829C526A]
14 94,4 [7CF036FC] [976D0261]
15 97,2 [9B3E4AC6] [9E60C824]


Thx to dmvitaly32
Uploadable

Yunfile


password: asd