Subcategories

Ian Boddy - 13 Albums (1983-2010) (Repost)

Posted By: gribovar
Ian Boddy - 13 Albums (1983-2010) (Repost)

Ian Boddy - 13 Albums (1983-2010)
EAC Rip | FLAC (image/tracks+.cue+log) - 5,12 GB | MP3 CBR 320 kbps (LAME 3.93) - 2,2 GB | Covers - 295 MB
Genre: Traditional Electronic, Berlin School, Ambient | RAR 3% Rec. | Label: Something Else Records, DiN

Ian Boddy has been at the forefront of the UK electronic music scene since 1983 when he both performed at the very first UK Electronica Festival in Milton Keynes and released his first vinyl album "The Climb". Ian Boddy provides the listener with a rich atmosphere of original timbres and floating soundscapes. He is one of the few of his generation to have successfully integrated electronic music styles as diverse as seventies-style sequencer structures, melodic neo-classicism and the post-rave Modern Ambient style. Next to Boddy's impressive solo career stands his collaborative live performance and studio efforts with several of Electronic Music's most innovative and interesting personalities including: Ron Boots, Chris Carter, Andy Pickford, Robert Rich, Markus Reuter, Erik Wollo, David Wright and the ongoing project ARC with Mark Shreeve.
A prolific performer, Boddy is credited with over 100 live appearances. He has performed at concerts in Britain (UK Electronica Festival, Jodrell Bank Planetarium, Awakenings, Hampshire Jam), Holland (Klemdag Festival, Alpha-Centauri Festival), Germany (Electric Circus) and Stateside at The Gatherings Concert Series.

Ian Boddy - 13 Albums (1983-2010) (Repost)

Ian Boddy - The Climb (1983) [Reissue 1993]
EAC Rip | FLAC (image+.cue+log) - 312 MB | MP3 CBR 320 kbps (LAME 3.93) - 126 MB | Covers - 17 MB
Genre: Traditional Electronic, Berlin School, Ambient | RAR 3% Rec. | Label: Something Else Records (SER 005)

Tracklist:
01. Kinetics
02. The Circle
03. Deja Vu (Part 1)
04. Deja Vu (Part 2)
05. Scorch

The Climb
06. a) Dawn
07. b) Procession
08. c) Hymn
09. d) Ascent
10. e) Summit
11. Deja Vu (Part 3) (Bonus track)

Total time: 53:44

Exact Audio Copy V1.0 beta 2 from 29. April 2011

EAC extraction logfile from 9. July 2011, 0:40

Ian Boddy / The Climb

Used drive : ASUS CRW-4824A Adapter: 1 ID: 0

Read mode : Secure
Utilize accurate stream : Yes
Defeat audio cache : Yes
Make use of C2 pointers : No

Read offset correction : 6
Overread into Lead-In and Lead-Out : Yes
Fill up missing offset samples with silence : Yes
Delete leading and trailing silent blocks : No
Null samples used in CRC calculations : Yes
Used interface : Installed external ASPI interface

Used output format : Internal WAV Routines
Sample format : 44.100 Hz; 16 Bit; Stereo


TOC of the extracted CD

Track | Start | Length | Start sector | End sector
––––––––––––––––––––––––––––-
1 | 0:00.00 | 4:38.37 | 0 | 20886
2 | 4:38.37 | 4:07.15 | 20887 | 39426
3 | 8:45.52 | 7:59.18 | 39427 | 75369
4 | 16:44.70 | 4:49.00 | 75370 | 97044
5 | 21:33.70 | 5:34.05 | 97045 | 122099
6 | 27:08.00 | 2:51.40 | 122100 | 134964
7 | 29:59.40 | 3:11.12 | 134965 | 149301
8 | 33:10.52 | 3:09.55 | 149302 | 163531
9 | 36:20.32 | 2:59.45 | 163532 | 177001
10 | 39:20.02 | 4:54.23 | 177002 | 199074
11 | 44:14.25 | 9:29.50 | 199075 | 241799


Range status and errors

Selected range

Filename D:\RTOS\Ian Boddy - The Climb.wav

Peak level 74.1 %
Extraction speed 2.6 X
Range quality 100.0 %
Test CRC 31E0AFC1
Copy CRC 31E0AFC1
Copy OK

No errors occurred


AccurateRip summary

Track 1 not present in database
Track 2 not present in database
Track 3 not present in database
Track 4 not present in database
Track 5 not present in database
Track 6 not present in database
Track 7 not present in database
Track 8 not present in database
Track 9 not present in database
Track 10 not present in database
Track 11 not present in database

None of the tracks are present in the AccurateRip database

End of status report

–– CUETools DB Plugin V2.1.2

[CTDB TOCID: zYJMwci_Iua3FZfUqy8XWSaztuk-] disk not present in database, Submit result: zYJMwci_Iua3FZfUqy8XWSaztuk- has been uploaded

[CUETools log; Date: 06.02.2017 22:35:47; Version: 2.1.4]
[CTDB TOCID: zYJMwci_Iua3FZfUqy8XWSaztuk-] found.
Track | CTDB Status
1 | (2/2) Accurately ripped
2 | (2/2) Accurately ripped
3 | (1/2) Accurately ripped, or (1/2) differs in 3 samples @05:35:45
4 | (2/2) Accurately ripped
5 | (2/2) Accurately ripped
6 | (2/2) Accurately ripped
7 | (2/2) Accurately ripped
8 | (2/2) Accurately ripped
9 | (2/2) Accurately ripped
10 | (2/2) Accurately ripped
11 | (2/2) Accurately ripped
[AccurateRip ID: 0015acd9-00b96bd5-880c980b] found.
Track [ CRC | V2 ] Status
01 [c592b369|51f58a4b] (3+3/6) Accurately ripped
02 [ce9a2475|7269dcc0] (3+3/6) Accurately ripped
03 [cb987df6|6e6463ce] (3+3/6) Accurately ripped
04 [bc956a1f|4d35e40b] (3+3/6) Accurately ripped
05 [1b7e26a3|69f2c2a5] (3+3/6) Accurately ripped
06 [aa8d4474|16919b95] (3+3/6) Accurately ripped
07 [17a49854|0d5a605f] (3+3/6) Accurately ripped
08 [126b22af|88655493] (3+3/6) Accurately ripped
09 [c4b2bd51|957c7d37] (3+3/6) Accurately ripped
10 [3c95e155|fabf2c0b] (3+3/6) Accurately ripped
11 [c2935bf7|7e78c775] (3+3/6) Accurately ripped

Track Peak [ CRC32 ] [W/O NULL] [ LOG ]
– 74,1 [31E0AFC1] [02084E2E] CRC32
01 61,4 [835A842B] [DCDC0FA1]
02 60,6 [A46DB1D0] [EEA0114F]
03 56,2 [F82D6E7D] [CBF5127D]
04 58,7 [0FC270FA] [7486C4D0]
05 51,3 [EC241D57] [8DABDBE9]
06 17,8 [CEDD69FF] [59D88DD4]
07 38,2 [FE5FDBBD] [B016C382]
08 44,8 [5AFE41F3] [DCD4583B]
09 62,8 [C860F21D] [CF00FB29]
10 26,5 [0B069E63] [656D5D3C]
11 74,1 [D97ADF1E] [245F70A1]

Ian Boddy - 13 Albums (1983-2010) (Repost)

Ian Boddy - Spirits (1984) [Reissue 1995]
EAC Rip | FLAC (image+.cue+log) - 344 MB | MP3 CBR 320 kbps (LAME 3.93) - 134 MB | Covers - 27 MB
Genre: Traditional Electronic | RAR 3% Rec. | Label: Something Else Records (SER 007)

Tracklist:
01. Pulse
02. Living in a Ritual
03. The Sentinel
04. Spirits
05. Lamalode (Bonus track)

Total time: 57:00

Exact Audio Copy V1.0 beta 2 from 29. April 2011

EAC extraction logfile from 9. July 2011, 1:59

Ian Boddy / Spirits

Used drive : ASUS CRW-4824A Adapter: 1 ID: 0

Read mode : Secure
Utilize accurate stream : Yes
Defeat audio cache : Yes
Make use of C2 pointers : No

Read offset correction : 6
Overread into Lead-In and Lead-Out : Yes
Fill up missing offset samples with silence : Yes
Delete leading and trailing silent blocks : No
Null samples used in CRC calculations : Yes
Used interface : Installed external ASPI interface

Used output format : Internal WAV Routines
Sample format : 44.100 Hz; 16 Bit; Stereo


TOC of the extracted CD

Track | Start | Length | Start sector | End sector
––––––––––––––––––––––––––––-
1 | 0:00.00 | 3:43.50 | 0 | 16774
2 | 3:43.50 | 4:17.60 | 16775 | 36109
3 | 8:01.35 | 12:14.37 | 36110 | 91196
4 | 20:15.72 | 23:27.63 | 91197 | 196784
5 | 43:43.60 | 13:16.15 | 196785 | 256499


Range status and errors

Selected range

Filename D:\RTOS\Ian Boddy - Spirits.wav

Peak level 99.9 %
Extraction speed 2.3 X
Range quality 100.0 %
Test CRC 9A80D72F
Copy CRC 9A80D72F
Copy OK

No errors occurred


AccurateRip summary

Track 1 not present in database
Track 2 not present in database
Track 3 not present in database
Track 4 not present in database
Track 5 not present in database

None of the tracks are present in the AccurateRip database

End of status report

–– CUETools DB Plugin V2.1.2

[CTDB TOCID: zq6Ogvqbz_KVKPxxpiM2Rs3ya4w-] disk not present in database, Submit result: zq6Ogvqbz_KVKPxxpiM2Rs3ya4w- has been uploaded

[CUETools log; Date: 06.02.2017 22:35:08; Version: 2.1.4]
[CTDB TOCID: zq6Ogvqbz_KVKPxxpiM2Rs3ya4w-] found.
Track | CTDB Status
1 | (4/4) Accurately ripped
2 | (4/4) Accurately ripped
3 | (4/4) Accurately ripped
4 | (4/4) Accurately ripped
5 | (4/4) Accurately ripped
[AccurateRip ID: 00091d77-002e3a5a-340d5c05] found.
Track [ CRC | V2 ] Status
01 [7e085801|58244a36] (1+1/2) Accurately ripped
02 [ea3d2a1e|fbc73caf] (1+1/2) Accurately ripped
03 [326d904a|30499b7a] (1+1/2) Accurately ripped
04 [e10751e1|b5bf6c67] (1+1/2) Accurately ripped
05 [4d3f92a9|471b1902] (1+1/2) Accurately ripped

Track Peak [ CRC32 ] [W/O NULL] [ LOG ]
– 99,9 [9A80D72F] [9EA2106C] CRC32
01 97,5 [9DF5802F] [8AC6FA40]
02 83,3 [3E161B7E] [36B5A6C9]
03 94,4 [5E7ACAF6] [9DA922BC]
04 95,5 [26760087] [00E27F2A]
05 99,9 [B0CE80D8] [1DBE6B98]

Ian Boddy - 13 Albums (1983-2010) (Repost)

Ian Boddy - Jade (1987) [Reissue 1992]
EAC Rip | FLAC (image+.cue+log) - 300 MB | MP3 CBR 320 kbps (LAME 3.93) - 110 MB | Covers - 23 MB
Genre: Traditional Electronic | RAR 3% Rec. | Label: Something Else Records (SER 003)

Tracklist:
01. Lorelei
02. Czarina
03. Temple
04. Jade
05. Sumatra
06. Mantis (Bonus track)

Total time: 46:48

Exact Audio Copy V1.0 beta 2 from 29. April 2011

EAC extraction logfile from 1. August 2011, 20:25

Ian Boddy / Jade

Used drive : PIONEER DVD-RW DVR-215D Adapter: 3 ID: 0

Read mode : Secure
Utilize accurate stream : Yes
Defeat audio cache : Yes
Make use of C2 pointers : No

Read offset correction : 48
Overread into Lead-In and Lead-Out : No
Fill up missing offset samples with silence : Yes
Delete leading and trailing silent blocks : No
Null samples used in CRC calculations : Yes
Used interface : Installed external ASPI interface

Used output format : Internal WAV Routines
Sample format : 44.100 Hz; 16 Bit; Stereo


TOC of the extracted CD

Track | Start | Length | Start sector | End sector
––––––––––––––––––––––––––––-
1 | 0:00.00 | 6:27.42 | 0 | 29066
2 | 6:27.42 | 8:08.65 | 29067 | 65731
3 | 14:36.32 | 7:17.38 | 65732 | 98544
4 | 21:53.70 | 7:47.05 | 98545 | 133574
5 | 29:41.00 | 11:16.65 | 133575 | 184339
6 | 40:57.65 | 5:50.10 | 184340 | 210599


Range status and errors

Selected range

Filename D:\Posting\Remember The Old Sequence\Ian Boddy - Jade.wav

Peak level 85.3 %
Extraction speed 7.2 X
Range quality 100.0 %
Test CRC E38EAFA9
Copy CRC E38EAFA9
Copy OK

No errors occurred


AccurateRip summary

Track 1 not present in database
Track 2 not present in database
Track 3 not present in database
Track 4 not present in database
Track 5 not present in database
Track 6 not present in database

None of the tracks are present in the AccurateRip database

End of status report

==== Log checksum ADE9474A64D9346CBA61808BCA389B4443DE54D02F4AD8DE16E29063E8AC042B ====

[CUETools log; Date: 06.02.2017 22:33:22; Version: 2.1.4]
[CTDB TOCID: My2_xTO1Zjzsj1wUzM9RiF5BCzI-] found.
Track | CTDB Status
1 | (3/3) Accurately ripped
2 | (3/3) Accurately ripped
3 | (3/3) Accurately ripped
4 | (3/3) Accurately ripped
5 | (3/3) Accurately ripped
6 | (3/3) Accurately ripped
[AccurateRip ID: 000b03c3-003b791a-5e0af806] found.
Track [ CRC | V2 ] Status
01 [855c6919|678ee35b] (0+3/3) Accurately ripped
02 [142419af|beeb9297] (0+3/3) Accurately ripped
03 [297cbe50|10091791] (0+3/3) Accurately ripped
04 [e7f9d594|0173ed87] (0+3/3) Accurately ripped
05 [54cf83f3|56dcbfac] (0+3/3) Accurately ripped
06 [25205c81|c6104236] (0+3/3) Accurately ripped

Track Peak [ CRC32 ] [W/O NULL] [ LOG ]
– 85,3 [E38EAFA9] [4D2E5A88] CRC32
01 62,4 [F68E669A] [926ADCF1]
02 68,8 [A398E857] [C766D143]
03 75,9 [C19FE0A6] [8B9163B5]
04 61,6 [E3B586C0] [CDC300FF]
05 85,3 [771F0E34] [B4C52A85]
06 69,3 [80C2E00C] [DBBDCB6A]

Ian Boddy - 13 Albums (1983-2010) (Repost)

Ian Boddy - The Uncertainty Principle (1993)
EAC Rip | FLAC (image+.cue+log) - 371 MB | MP3 CBR 320 kbps (LAME 3.93) - 141 MB | Covers - 30 MB
Genre: Traditional Electronic | RAR 3% Rec. | Label: Something Else Records (SER 004)

Tracklist:
01. Times Arrow
02. Virtual Jorney
03. Chromazone
04. Space Cadet
05. Interstellar Interlude No.1
06. Cassiopeia's Dream
07. Interstellar Interlude No.2
08. Supernova
09. The Uncertainty Principle Part 1
10. The Uncertainty Principle Part 2
11. The Uncertainty Principle Part 3
12. Beyond The Event Horizon
13. Times End

Total time: 01:00:10

Exact Audio Copy V1.0 beta 1 from 15. November 2010

EAC extraction logfile from 19. March 2011, 19:17

Ian Boddy / The Uncertainty Principle

Used drive : SONY CD-RW CRX210E1 Adapter: 0 ID: 0

Read mode : Secure
Utilize accurate stream : Yes
Defeat audio cache : Yes
Make use of C2 pointers : No

Read offset correction : 6
Overread into Lead-In and Lead-Out : No
Fill up missing offset samples with silence : Yes
Delete leading and trailing silent blocks : No
Null samples used in CRC calculations : Yes
Used interface : Installed external ASPI interface

Used output format : Internal WAV Routines
Sample format : 44.100 Hz; 16 Bit; Stereo


TOC of the extracted CD

Track | Start | Length | Start sector | End sector
––––––––––––––––––––––––––––-
1 | 0:00.00 | 4:06.55 | 0 | 18504
2 | 4:06.55 | 7:47.27 | 18505 | 53556
3 | 11:54.07 | 5:36.18 | 53557 | 78774
4 | 17:30.25 | 5:42.70 | 78775 | 104494
5 | 23:13.20 | 1:34.17 | 104495 | 111561
6 | 24:47.37 | 6:21.60 | 111562 | 140196
7 | 31:09.22 | 2:26.40 | 140197 | 151186
8 | 33:35.62 | 4:28.33 | 151187 | 171319
9 | 38:04.20 | 3:45.17 | 171320 | 188211
10 | 41:49.37 | 3:29.63 | 188212 | 203949
11 | 45:19.25 | 3:21.20 | 203950 | 219044
12 | 48:40.45 | 8:28.02 | 219045 | 257146
13 | 57:08.47 | 3:01.28 | 257147 | 270749


Range status and errors

Selected range

Filename C:\Users\Public\Ian Boddy - The Uncertainty Principle.wav

Peak level 99.9 %
Extraction speed 0.4 X
Range quality 100.0 %
Test CRC 34D30D58
Copy CRC 34D30D58
Copy OK

No errors occurred


AccurateRip summary

Track 1 accurately ripped (confidence 2) [953B7D5A]
Track 2 accurately ripped (confidence 2) [2D4D53B8]
Track 3 accurately ripped (confidence 2) [E633BA89]
Track 4 accurately ripped (confidence 2) [FC4CE7F9]
Track 5 accurately ripped (confidence 2) [2F346747]
Track 6 accurately ripped (confidence 2) [151DB5E9]
Track 7 accurately ripped (confidence 2) [49AED288]
Track 8 accurately ripped (confidence 2) [774D167D]
Track 9 accurately ripped (confidence 2) [A49FD21A]
Track 10 accurately ripped (confidence 2) [FB5C385C]
Track 11 accurately ripped (confidence 2) [A742279B]
Track 12 accurately ripped (confidence 2) [1FD0E8DA]
Track 13 accurately ripped (confidence 2) [44F30B72]

All tracks accurately ripped

End of status report

==== Log checksum 44F86F6A75D450B1ACBEF30C48B2FDB6C75CE6BF6C32F363E5125F99D2595608 ====

[CUETools log; Date: 06.02.2017 22:36:56; Version: 2.1.4]
[CTDB TOCID: rmQhdZBfiSMM5EzKIZNqN1_bjww-] found.
Track | CTDB Status
1 | (11/11) Accurately ripped
2 | (11/11) Accurately ripped
3 | (11/11) Accurately ripped
4 | (11/11) Accurately ripped
5 | (11/11) Accurately ripped
6 | (11/11) Accurately ripped
7 | (11/11) Accurately ripped
8 | (11/11) Accurately ripped
9 | (11/11) Accurately ripped
10 | (11/11) Accurately ripped
11 | (11/11) Accurately ripped
12 | (11/11) Accurately ripped
13 | (11/11) Accurately ripped
[AccurateRip ID: 001e0a3e-0126dfe9-a90e1a0d] found.
Track [ CRC | V2 ] Status
01 [953b7d5a|75e49ab3] (4+5/9) Accurately ripped
02 [2d4d53b8|70ad3cf4] (4+5/9) Accurately ripped
03 [e633ba89|c3b9c1e0] (4+5/9) Accurately ripped
04 [fc4ce7f9|503ca1f8] (4+5/9) Accurately ripped
05 [2f346747|8d1005e6] (4+5/9) Accurately ripped
06 [151db5e9|938e69db] (4+5/9) Accurately ripped
07 [49aed288|dc6a6f35] (4+5/9) Accurately ripped
08 [774d167d|6016dce7] (4+5/9) Accurately ripped
09 [a49fd21a|7c977f4e] (4+5/9) Accurately ripped
10 [fb5c385c|9f182de1] (4+5/9) Accurately ripped
11 [a742279b|137c0d40] (4+4/8) Accurately ripped
12 [1fd0e8da|4b89f94c] (4+5/9) Accurately ripped
13 [44f30b72|7b2f3d51] (4+5/9) Accurately ripped

Track Peak [ CRC32 ] [W/O NULL] [ LOG ]
– 99,9 [34D30D58] [1F75882F] CRC32
01 95,8 [6C6C86F6] [1C1D9C28]
02 92,9 [33BFEFEB] [FB4BCD53]
03 99,9 [7525F970] [CD58D363]
04 91,1 [9661446B] [215271D1]
05 65,9 [FE1F98DD] [04E7F4B5]
06 87,0 [D3CA13B8] [8845AC46]
07 79,6 [DA1E82B7] [8BA84B07]
08 96,3 [6F416CEC] [7CC95B33]
09 80,2 [B47D7920] [0502F482]
10 56,6 [5EA86148] [41BB1F6B]
11 71,1 [858A3F2E] [8D13F840]
12 96,8 [C599A048] [32C454BB]
13 85,2 [FB8B11B0] [B3E5F7BD]

Ian Boddy - 13 Albums (1983-2010) (Repost)

Ian Boddy - The Deep (1994)
EAC Rip | FLAC (image+.cue+log) - 365 MB | MP3 CBR 320 kbps (LAME 3.93) - 144 MB | Covers - 32 MB
Genre: Traditional Electronic, Ambient | RAR 3% Rec. | Label: Something Else Records (SER 006)

Tracklist:
01. Standing at the Edge
02. Dark Descent
03. The Deep
04. In the Realm of Poseidon
05. Leviathan
06. Flow Current Flow
07. Sirens Call
08. Aquanaut
09. Re-emergence
10. Surface Flight
11. Sub-aquiem

Total time: 01:01:10

Exact Audio Copy V1.0 beta 1 from 15. November 2010

EAC extraction logfile from 19. March 2011, 18:53

Ian Boddy / The Deep

Used drive : SONY CD-RW CRX210E1 Adapter: 0 ID: 0

Read mode : Secure
Utilize accurate stream : Yes
Defeat audio cache : Yes
Make use of C2 pointers : No

Read offset correction : 6
Overread into Lead-In and Lead-Out : No
Fill up missing offset samples with silence : Yes
Delete leading and trailing silent blocks : No
Null samples used in CRC calculations : Yes
Used interface : Installed external ASPI interface

Used output format : Internal WAV Routines
Sample format : 44.100 Hz; 16 Bit; Stereo


TOC of the extracted CD

Track | Start | Length | Start sector | End sector
––––––––––––––––––––––––––––-
1 | 0:00.00 | 2:12.20 | 0 | 9919
2 | 2:12.20 | 5:24.10 | 9920 | 34229
3 | 7:36.30 | 3:51.15 | 34230 | 51569
4 | 11:27.45 | 5:08.67 | 51570 | 74736
5 | 16:36.37 | 5:46.73 | 74737 | 100759
6 | 22:23.35 | 7:52.40 | 100760 | 136199
7 | 30:16.00 | 8:00.50 | 136200 | 172249
8 | 38:16.50 | 5:50.72 | 172250 | 198571
9 | 44:07.47 | 4:27.18 | 198572 | 218614
10 | 48:34.65 | 8:48.52 | 218615 | 258266
11 | 57:23.42 | 3:46.33 | 258267 | 275249


Range status and errors

Selected range

Filename C:\Users\Public\Ian Boddy - The Deep.wav

Peak level 100.0 %
Extraction speed 0.4 X
Range quality 100.0 %
Test CRC 931AD508
Copy CRC 931AD508
Copy OK

No errors occurred


AccurateRip summary

Track 1 accurately ripped (confidence 3) [5F3C1BDF]
Track 2 accurately ripped (confidence 3) [0A93E50D]
Track 3 accurately ripped (confidence 3) [8F1121A4]
Track 4 accurately ripped (confidence 3) [64114D16]
Track 5 accurately ripped (confidence 3) [D93F6C4F]
Track 6 accurately ripped (confidence 3) [F7BE6A0D]
Track 7 accurately ripped (confidence 3) [26679B2B]
Track 8 accurately ripped (confidence 3) [78D9587B]
Track 9 accurately ripped (confidence 3) [236FBE21]
Track 10 accurately ripped (confidence 3) [3BB290F9]
Track 11 accurately ripped (confidence 3) [9FD04BBE]

All tracks accurately ripped

End of status report

==== Log checksum B6FD1A9FC7B086B88DD24D84F0FA6BEAFE3C6E59C20AE15CA8186B0E162AD9FC ====

[CUETools log; Date: 06.02.2017 22:36:22; Version: 2.1.4]
[CTDB TOCID: Ovdxa6cbyIlzmuj11PDxhxoiZAg-] found.
Track | CTDB Status
1 | (8/8) Accurately ripped
2 | (8/8) Accurately ripped
3 | (8/8) Accurately ripped
4 | (8/8) Accurately ripped
5 | (8/8) Accurately ripped
6 | (8/8) Accurately ripped
7 | (8/8) Accurately ripped
8 | (8/8) Accurately ripped
9 | (8/8) Accurately ripped
10 | (8/8) Accurately ripped
11 | (8/8) Accurately ripped
[AccurateRip ID: 00175a03-00d1e52b-b70e560b] found.
Track [ CRC | V2 ] Status
01 [5f3c1bdf|e580d9d6] (4+4/8) Accurately ripped
02 [0a93e50d|b6284d5a] (4+4/8) Accurately ripped
03 [8f1121a4|4a9f4634] (4+4/8) Accurately ripped
04 [64114d16|92c4c6fe] (4+4/8) Accurately ripped
05 [d93f6c4f|5c62b2aa] (4+4/8) Accurately ripped
06 [f7be6a0d|b78f23e7] (4+4/8) Accurately ripped
07 [26679b2b|6fee3ba8] (4+4/8) Accurately ripped
08 [78d9587b|05342857] (4+4/8) Accurately ripped
09 [236fbe21|920eeca6] (4+4/8) Accurately ripped
10 [3bb290f9|24eda83f] (4+4/8) Accurately ripped
11 [9fd04bbe|817af21a] (4+4/8) Accurately ripped

Track Peak [ CRC32 ] [W/O NULL] [ LOG ]
– 100,0 [931AD508] [7B78C8C6] CRC32
01 99,9 [F2C56844] [E1E58B0A]
02 90,9 [B723DBE9] [EAE7EBB2]
03 100,0 [161AB979] [1D7DE0A9]
04 81,3 [239AC485] [7E5E9D37]
05 95,8 [B5A6883E] [0B690AA0]
06 90,4 [73180231] [E56272CE]
07 91,5 [6EECB83E] [F97DEFCD]
08 100,0 [55E5E6D2] [5779F848]
09 89,1 [BC0C6C5C] [66894DC2]
10 89,1 [BEC4D12E] [5C218463]
11 79,9 [9A050E21] [FA3F00CA]

Ian Boddy - 13 Albums (1983-2010) (Repost)

Ian Boddy & Andy Pickford - Symbiont (1995)
EAC Rip | FLAC (image+.cue+log) - 390 MB | MP3 CBR 320 kbps (LAME 3.93) - 147 MB | Covers - 22 MB
Genre: Traditional Electronic, Berlin School | RAR 3% Rec. | Label: Something Else Records (SER 008)

Tracklist:
01. Enigmagic
02. Who Goes There?
03. Dreifarbig Bomber
04. Sequence In Blue
05. Prophet
06. Moebius Loops Again
07. Symbiont
08. Kuhl Bleu
09. B.S.Y.T.

Total time: 01:02:34

Exact Audio Copy V1.0 beta 2 from 29. April 2011

EAC extraction logfile from 27. July 2011, 23:39

Ian Boddy & Andy Pickford / Symbiont

Used drive : PIONEER DVD-RW DVR-215D Adapter: 3 ID: 0

Read mode : Secure
Utilize accurate stream : Yes
Defeat audio cache : Yes
Make use of C2 pointers : No

Read offset correction : 48
Overread into Lead-In and Lead-Out : No
Fill up missing offset samples with silence : Yes
Delete leading and trailing silent blocks : No
Null samples used in CRC calculations : Yes
Used interface : Installed external ASPI interface

Used output format : Internal WAV Routines
Sample format : 44.100 Hz; 16 Bit; Stereo


TOC of the extracted CD

Track | Start | Length | Start sector | End sector
––––––––––––––––––––––––––––-
1 | 0:00.00 | 9:29.15 | 0 | 42689
2 | 9:29.15 | 2:59.72 | 42690 | 56186
3 | 12:29.12 | 7:29.10 | 56187 | 89871
4 | 19:58.22 | 6:41.15 | 89872 | 119961
5 | 26:39.37 | 9:32.40 | 119962 | 162901
6 | 36:12.02 | 5:34.63 | 162902 | 188014
7 | 41:46.65 | 7:27.44 | 188015 | 221583
8 | 49:14.34 | 6:59.73 | 221584 | 253081
9 | 56:14.32 | 6:19.43 | 253082 | 281549


Range status and errors

Selected range

Filename D:\Posting\Remember The Old Sequence\Ian Boddy & Andy Pickford - Symbiont.wav

Peak level 100.0 %
Extraction speed 7.8 X
Range quality 99.9 %
Copy CRC 7C84EEE3
Copy OK

No errors occurred


AccurateRip summary

Track 1 accurately ripped (confidence 1) [56A05348] (AR v1)
Track 2 accurately ripped (confidence 1) [D2A00A60] (AR v1)
Track 3 accurately ripped (confidence 2) [2C0810BE] (AR v1)
Track 4 accurately ripped (confidence 1) [81E3225D] (AR v1)
Track 5 accurately ripped (confidence 1) [5B317C73] (AR v1)
Track 6 accurately ripped (confidence 1) [AA3D632B] (AR v1)
Track 7 accurately ripped (confidence 1) [F9D29120] (AR v1)
Track 8 accurately ripped (confidence 1) [54783565] (AR v1)
Track 9 accurately ripped (confidence 1) [A48320E7] (AR v1)

All tracks accurately ripped

End of status report

==== Log checksum 1D00D2D12531C1B9EB5F933035F4B8EB708E091FD942E5EB9E4953DCABE8D032 ====

[CUETools log; Date: 06.02.2017 22:26:05; Version: 2.1.4]
[CTDB TOCID: 4TTjTRGSftvrhngXQWz_CiLvS9k-] found.
Track | CTDB Status
1 | (3/3) Accurately ripped
2 | (3/3) Accurately ripped
3 | (3/3) Accurately ripped
4 | (3/3) Accurately ripped
5 | (3/3) Accurately ripped
6 | (3/3) Accurately ripped
7 | (3/3) Accurately ripped
8 | (3/3) Accurately ripped
9 | (3/3) Accurately ripped
[AccurateRip ID: 00159aa4-009e463b-6d0eaa09] found.
Track [ CRC | V2 ] Status
01 [56a05348|8355a4c2] (3+4/7) Accurately ripped
02 [d2a00a60|915623c4] (3+4/7) Accurately ripped
03 [2c0810be|8dcebb2e] (4+4/8) Accurately ripped
04 [81e3225d|56c88e6a] (3+4/7) Accurately ripped
05 [5b317c73|95c5c256] (3+4/7) Accurately ripped
06 [aa3d632b|31727786] (3+4/7) Accurately ripped
07 [f9d29120|60dfed89] (3+4/7) Accurately ripped
08 [54783565|84425fd8] (3+4/7) Accurately ripped
09 [a48320e7|1a6918ac] (3+4/7) Accurately ripped

Track Peak [ CRC32 ] [W/O NULL] [ LOG ]
– 100,0 [7C84EEE3] [332DB991] CRC32
01 100,0 [FAF2DA8A] [DF5DD745]
02 76,5 [4A7CC39C] [78058D1A]
03 100,0 [4CFD6262] [5203DC57]
04 99,9 [39413137] [31B1A06F]
05 100,0 [400DF793] [28201ED7]
06 81,9 [F2A05338] [109E4D58]
07 99,9 [6311D24B] [857E56BA]
08 73,4 [FA22EAF6] [EBD9A4EB]
09 99,9 [7BEAED7A] [61827A4B]

Ian Boddy - 13 Albums (1983-2010) (Repost)

Ian Boddy - Continuum (1996)
EAC Rip | FLAC (image+.cue+log) - 767 MB | MP3 CBR 320 kbps (LAME 3.93) - 339 MB | Covers - 45 MB
Genre: Ambient | RAR 3% Rec. | Label: Something Else Records (SER 011)

CD 1 Tracklist (Alpha):
01. Part 1
02. Part 2
03. Part 3
04. Part 4
05. Part 5
06. Part 6

Total time: 01:12:01

CD 2 Tracklist (Beta):
01. Part 1
02. Part 2
03. Part 3
04. Part 4
05. Part 5
06. Part 6
07. Part 7

Total time: 01:11:49

Exact Audio Copy V1.0 beta 1 from 15. November 2010

EAC extraction logfile from 19. March 2011, 21:43

Ian Boddy / Continuum - Alpha

Used drive : SONY CD-RW CRX210E1 Adapter: 0 ID: 0

Read mode : Secure
Utilize accurate stream : Yes
Defeat audio cache : Yes
Make use of C2 pointers : No

Read offset correction : 6
Overread into Lead-In and Lead-Out : No
Fill up missing offset samples with silence : Yes
Delete leading and trailing silent blocks : No
Null samples used in CRC calculations : Yes
Used interface : Installed external ASPI interface

Used output format : Internal WAV Routines
Sample format : 44.100 Hz; 16 Bit; Stereo


TOC of the extracted CD

Track | Start | Length | Start sector | End sector
––––––––––––––––––––––––––––-
1 | 0:00.00 | 10:26.05 | 0 | 46954
2 | 10:26.05 | 17:14.36 | 46955 | 124540
3 | 27:40.41 | 6:25.49 | 124541 | 153464
4 | 34:06.15 | 5:42.66 | 153465 | 179180
5 | 39:49.06 | 20:16.08 | 179181 | 270388
6 | 60:05.14 | 11:55.44 | 270389 | 324057


Range status and errors

Selected range

Filename C:\Users\Public\Ian Boddy - Continuum - Alpha.wav

Peak level 100.0 %
Extraction speed 1.5 X
Range quality 100.0 %
Test CRC AA310057
Copy CRC AA310057
Copy OK

No errors occurred


AccurateRip summary

Track 1 not present in database
Track 2 not present in database
Track 3 not present in database
Track 4 not present in database
Track 5 not present in database
Track 6 not present in database

None of the tracks are present in the AccurateRip database

End of status report

==== Log checksum 97618912E3E4237438EDA55CD25CE7428A555AB0EC256FA8A78AACA389CA969E ====

[CUETools log; Date: 06.02.2017 22:45:57; Version: 2.1.4]
[CTDB TOCID: bZbWj3h.bvlReM6pc1cMLPTD1R8-] found.
Track | CTDB Status
1 | (6/6) Accurately ripped
2 | (4/6) Accurately ripped
3 | (6/6) Accurately ripped
4 | (6/6) Accurately ripped
5 | (6/6) Accurately ripped
6 | (6/6) Accurately ripped
[AccurateRip ID: 0010c35d-00598a07-4e10e006] found.
Track [ CRC | V2 ] Status
01 [8c9af075|91605f4a] (3+3/6) Accurately ripped
02 [b076b8ad|039c7cf8] (3+2/5) Accurately ripped
03 [57a3ef88|c3c16d1a] (3+3/6) Accurately ripped
04 [ce611ca6|b627e92e] (3+3/6) Accurately ripped
05 [009a4d3d|2a167700] (3+3/6) Accurately ripped
06 [9a20f918|72aa09c2] (3+3/6) Accurately ripped

Track Peak [ CRC32 ] [W/O NULL] [ LOG ]
– 100,0 [AA310057] [4EDACDB2] CRC32
01 56,0 [85EE7D7B] [688E77FC]
02 100,0 [83E0DF2B] [5F70B9D0]
03 30,2 [E3F0CD71] [733E2341]
04 38,4 [1DDE9136] [C44396CE]
05 98,2 [77823CBD] [8CB32A8C]
06 64,6 [59B092DE] [AB4CA97E]

Exact Audio Copy V1.0 beta 1 from 15. November 2010

EAC extraction logfile from 20. March 2011, 10:18

Ian Boddy / Continuum - Beta

Used drive : SONY CD-RW CRX210E1 Adapter: 0 ID: 0

Read mode : Secure
Utilize accurate stream : Yes
Defeat audio cache : Yes
Make use of C2 pointers : No

Read offset correction : 6
Overread into Lead-In and Lead-Out : No
Fill up missing offset samples with silence : Yes
Delete leading and trailing silent blocks : No
Null samples used in CRC calculations : Yes
Used interface : Installed external ASPI interface

Used output format : Internal WAV Routines
Sample format : 44.100 Hz; 16 Bit; Stereo


TOC of the extracted CD

Track | Start | Length | Start sector | End sector
––––––––––––––––––––––––––––-
1 | 0:00.00 | 10:53.69 | 0 | 49043
2 | 10:53.69 | 2:32.56 | 49044 | 60499
3 | 13:26.50 | 4:24.38 | 60500 | 80337
4 | 17:51.13 | 6:55.50 | 80338 | 111512
5 | 24:46.63 | 17:45.60 | 111513 | 191447
6 | 42:32.48 | 9:46.72 | 191448 | 235469
7 | 52:19.45 | 19:29.28 | 235470 | 323172


Range status and errors

Selected range

Filename C:\Users\Public\Ian Boddy - Continuum - Beta.wav

Peak level 99.9 %
Extraction speed 2.4 X
Range quality 100.0 %
Test CRC 924DEE34
Copy CRC 924DEE34
Copy OK

No errors occurred


AccurateRip summary

Track 1 not present in database
Track 2 not present in database
Track 3 not present in database
Track 4 not present in database
Track 5 not present in database
Track 6 not present in database
Track 7 not present in database

None of the tracks are present in the AccurateRip database

End of status report

==== Log checksum 5ED9AC20155D237B06D4FB7C1F840D9B91FD4DC692AFF25F43509E935456C2CF ====

[CUETools log; Date: 06.02.2017 22:47:10; Version: 2.1.4]
[CTDB TOCID: LC8vGjXgZszW_tBYJR450WuV2Qw-] found.
Track | CTDB Status
1 | (5/5) Accurately ripped
2 | (5/5) Accurately ripped
3 | (5/5) Accurately ripped
4 | (5/5) Accurately ripped
5 | (5/5) Accurately ripped
6 | (5/5) Accurately ripped
7 | (5/5) Accurately ripped
[AccurateRip ID: 00100b5e-0063ce44-5b10d407] found.
Track [ CRC | V2 ] Status
01 [75d17023|a6c378da] (3+3/6) Accurately ripped
02 [2b7fd6b6|862cb915] (3+3/6) Accurately ripped
03 [ce53e93a|016b05f7] (3+3/6) Accurately ripped
04 [31aade0d|d772cb6c] (3+3/6) Accurately ripped
05 [2a258653|2fdc416c] (3+3/6) Accurately ripped
06 [f7bb8aee|ef15c495] (3+3/6) Accurately ripped
07 [ad6bd88c|97ca24be] (3+3/6) Accurately ripped

Track Peak [ CRC32 ] [W/O NULL] [ LOG ]
– 99,9 [924DEE34] [FD5536FA] CRC32
01 48,0 [37046B57] [E7942778]
02 91,7 [A9AB1D49] [8B986991]
03 69,9 [11394017] [883378AE]
04 99,9 [E6DF753E] [B8CA7F15]
05 63,9 [EC91938C] [0743B64A]
06 55,1 [2E26D54D] [C45FB847]
07 99,5 [CFBF242F] [6730486D]

Ian Boddy - 13 Albums (1983-2010) (Repost)

Ian Boddy - Box of Secrets (1999)
EAC Rip | FLAC (image+.cue+log) - 247 MB | MP3 CBR 320 kbps (LAME 3.93) - 138 MB | Covers - 9 MB
Genre: Electronic, Berlin School, Ambient | RAR 3% Rec. | Label: DiN (DiN 1)

Tracklist:
01. Frozen Web
02. Box of Secrets
03. Shadows in the Sand
04. There's Something in Your Attic
05. Walking the Slow Path
06. Nobody's Home
07. Hive Culture

Total time: 58:56

Exact Audio Copy V0.99 prebeta 4 from 23. January 2008

Отчёт EAC об извлечении, выполненном 20. декабря 2008, 12:23

Ian Boddy / Box of Secrets

Дисковод: Optiarc DVD RW AD-7191A Adapter: 0 ID: 0

Режим чтения : Достоверность
Использование точного потока : Да
Отключение кэша аудио : Да
Использование указателей C2 : Нет

Коррекция смещения при чтении : 6
Способность читать области Lead-in и Lead-out : Нет
Заполнение пропущенных сэмплов тишиной : Да
Удаление блоков с тишиной в начале и конце : Нет
При вычислениях CRC использовались нулевые сэмплы : Да
Интерфейс : Установленный внешний ASPI-интерфейс

Выходной формат : Внутренние WAV-операции
Формат сэмплов : 44.100 Гц; 16 бит; стерео


TOC извлечённого CD

Трек | Старт | Длительность | Начальный сектор | Конечный сектор
––––––––––––––––––––––––––––––––––-
1 | 0:00.00 | 10:24.00 | 0 | 46799
2 | 10:24.00 | 7:22.00 | 46800 | 79949
3 | 17:46.00 | 9:13.00 | 79950 | 121424
4 | 26:59.00 | 2:28.00 | 121425 | 132524
5 | 29:27.00 | 13:20.00 | 132525 | 192524
6 | 42:47.00 | 7:05.00 | 192525 | 224399
7 | 49:52.00 | 9:04.32 | 224400 | 265231


Характеристики диапазона извлечения и сообщения об ошибках

Выбранный диапазон

Имя файла C:\Uploads\Ian Boddy - 1999 - Box of Secrets\Ian Boddy - Box of Secrets.wav

Пиковый уровень 98.8 %
Качество диапазона 100.0 %
CRC теста 4F000702
CRC копии 4F000702
Копирование… OK

Ошибок не произошло


AccurateRip: сводка

Трек 1 нет в базе данных
Трек 2 нет в базе данных
Трек 3 нет в базе данных
Трек 4 нет в базе данных
Трек 5 нет в базе данных
Трек 6 нет в базе данных
Трек 7 нет в базе данных

Ни одного трека нет в базе AccurateRip

Конец отчёта

[CUETools log; Date: 06.02.2017 22:41:10; Version: 2.1.4]
[CTDB TOCID: aQMY7S82_siJf6sHkihbGkzG.z4-] found.
Track | CTDB Status
1 | (3/3) Accurately ripped
2 | (3/3) Accurately ripped
3 | (3/3) Accurately ripped
4 | (3/3) Accurately ripped
5 | (3/3) Accurately ripped
6 | (3/3) Accurately ripped
7 | (3/3) Accurately ripped
[AccurateRip ID: 001037c9-006094ee-6e0dd007] found.
Track [ CRC | V2 ] Status
01 [cea2ffe3|00e01a51] (4+4/8) Accurately ripped
02 [d99431f6|b10b20f3] (4+4/8) Accurately ripped
03 [1bbf3918|46dc1efb] (4+4/8) Accurately ripped
04 [5555fa68|8d0fe64d] (4+4/8) Accurately ripped
05 [5c153ea1|13e7a6f5] (4+4/8) Accurately ripped
06 [6208e092|673b1002] (4+4/8) Accurately ripped
07 [174fdf94|35402e62] (4+4/8) Accurately ripped

Track Peak [ CRC32 ] [W/O NULL] [ LOG ]
– 98,8 [4F000702] [2424A4F6] CRC32
01 98,8 [0086D5F4] [9998916B]
02 86,5 [8FB25F4B] [E536A8C0]
03 98,8 [CC8C179B] [A3B682EA]
04 59,7 [D36BA2B0] [BCA90A18]
05 88,8 [A5C07718] [A006182E]
06 61,4 [A3A256D0] [3FB49246]
07 98,8 [C526F485] [8C0CA1EA]

Ian Boddy - 13 Albums (1983-2010) (Repost)

Ian Boddy - Aurora (2002)
EAC Rip | FLAC (tracks+.cue+log) - 299 MB | MP3 CBR 320 kbps (LAME 3.93) - 157 MB | Covers - 7 MB
Genre: Ambient | RAR 3% Rec. | Label: DiN (DiN12)

Tracklist:
01. Gravity Well
02. Ecliptic
03. Vox Lumina
04. Zero-G
05. Escape Velocity
06. Aurora

Total time: 01:06:41

Exact Audio Copy V0.99 prebeta 4 from 23. January 2008

EAC extraction logfile from 13. July 2008, 14:10

Ian Boddy / Aurora

Used drive : PIONEER DVD-RW DVR-110D Adapter: 5 ID: 0

Read mode : Secure
Utilize accurate stream : Yes
Defeat audio cache : Yes
Make use of C2 pointers : No

Read offset correction : 48
Overread into Lead-In and Lead-Out : No
Fill up missing offset samples with silence : Yes
Delete leading and trailing silent blocks : No
Null samples used in CRC calculations : Yes
Used interface : Installed external ASPI interface
Gap handling : Appended to previous track

Used output format : User Defined Encoder
Selected bitrate : 320 kBit/s
Quality : High
Add ID3 tag : Yes
Command line compressor : C:\Program Files\FLAC\flac.exe
Additional command line options : -V -6 -T "artist=%a" -T "title=%t" -T "album=%g" -T "date=%y" -T "tracknumber=%n" -T "genre=%m" %s


TOC of the extracted CD

Track | Start | Length | Start sector | End sector
––––––––––––––––––––––––––––-
1 | 0:00.00 | 5:52.00 | 0 | 26399
2 | 5:52.00 | 10:38.00 | 26400 | 74249
3 | 16:30.00 | 9:08.00 | 74250 | 115349
4 | 25:38.00 | 11:21.65 | 115350 | 166489
5 | 36:59.65 | 12:53.10 | 166490 | 224474
6 | 49:53.00 | 16:48.74 | 224475 | 300148


Track 1

Filename D:\Rips\Ian_Boddy_-_Aurora-(FLAC)-2002\01-Ian_Boddy_-_Gravity_Well.wav

Pre-gap length 0:00:02.00

Peak level 98.8 %
Track quality 99.9 %
Test CRC 02FC3EB3
Copy CRC 02FC3EB3
Accurately ripped (confidence 1) [FE587149]
Copy OK

Track 2

Filename D:\Rips\Ian_Boddy_-_Aurora-(FLAC)-2002\02-Ian_Boddy_-_Ecliptic.wav

Pre-gap length 0:00:01.59

Peak level 96.6 %
Track quality 100.0 %
Test CRC A2503BE2
Copy CRC A2503BE2
Accurately ripped (confidence 1) [237F3112]
Copy OK

Track 3

Filename D:\Rips\Ian_Boddy_-_Aurora-(FLAC)-2002\03-Ian_Boddy_-_Vox_Lumina.wav

Pre-gap length 0:00:01.56

Peak level 96.6 %
Track quality 100.0 %
Test CRC 9D8041B8
Copy CRC 9D8041B8
Accurately ripped (confidence 1) [0AF18B9C]
Copy OK

Track 4

Filename D:\Rips\Ian_Boddy_-_Aurora-(FLAC)-2002\04-Ian_Boddy_-_Zero-G.wav

Pre-gap length 0:00:00.34

Peak level 93.0 %
Track quality 100.0 %
Test CRC 250CA292
Copy CRC 250CA292
Accurately ripped (confidence 1) [F276428D]
Copy OK

Track 5

Filename D:\Rips\Ian_Boddy_-_Aurora-(FLAC)-2002\05-Ian_Boddy_-_Escape_Velocity.wav

Pre-gap length 0:00:01.48

Peak level 98.4 %
Track quality 100.0 %
Test CRC 63A6285A
Copy CRC 63A6285A
Accurately ripped (confidence 1) [ECA1E015]
Copy OK

Track 6

Filename D:\Rips\Ian_Boddy_-_Aurora-(FLAC)-2002\06-Ian_Boddy_-_Aurora.wav

Pre-gap length 0:00:01.62

Peak level 98.8 %
Track quality 100.0 %
Test CRC 98C59D6D
Copy CRC 98C59D6D
Accurately ripped (confidence 1) [72F20B43]
Copy OK


All tracks accurately ripped

No errors occurred

End of status report

[CUETools log; Date: 06.02.2017 22:18:49; Version: 2.1.4]
[CTDB TOCID: b_.CPd.5O9NNKbpXBJUg8IWoenM-] found.
Track | CTDB Status
1 | (3/3) Accurately ripped
2 | (3/3) Accurately ripped
3 | (3/3) Accurately ripped
4 | (3/3) Accurately ripped
5 | (3/3) Accurately ripped
6 | (3/3) Accurately ripped
[AccurateRip ID: 000dd76a-004c8ece-4c0fa106] found.
Track [ CRC | V2 ] Status
01 [fe587149|4f836775] (4+4/8) Accurately ripped
02 [237f3112|f5af6b7f] (4+4/8) Accurately ripped
03 [0af18b9c|c0e29727] (4+4/8) Accurately ripped
04 [f276428d|8f6a4d2d] (4+4/8) Accurately ripped
05 [eca1e015|a3dd70bd] (4+4/8) Accurately ripped
06 [72f20b43|b6729c03] (4+4/8) Accurately ripped

Track Peak [ CRC32 ] [W/O NULL] [ LOG ]
– 98,8 [4A0F92B8] [2DE776C4]
01 98,8 [02FC3EB3] [96953AFD] CRC32
02 96,6 [A2503BE2] [DE45B49C] CRC32
03 96,6 [9D8041B8] [7288A14E] CRC32
04 93,0 [250CA292] [7FA79A87] CRC32
05 98,4 [63A6285A] [2218A9E2] CRC32
06 98,8 [98C59D6D] [9C86E3B2] CRC32

Ian Boddy - 13 Albums (1983-2010) (Repost)

Ian Boddy - Chiasmata (2004)
EAC Rip | FLAC (tracks+.cue+log) - 324 MB | MP3 CBR 320 kbps (LAME 3.93) - 162 MB | Covers - 5 MB
Genre: Electronic, Ambient | RAR 3% Rec. | Label: DiN (DiN16)

Tracklist:
01. Gravity Well
02. Dark Matter
03. Ecliptic
04. Lightfall
05. Nucleotide
06. The Mystic
07. Chiasmata
08. Kinaesthesia
09. Still Point
10. Mechanic Organic

Total time: 01:08:44

Exact Audio Copy V0.99 prebeta 4 from 23. January 2008

EAC extraction logfile from 13. July 2008, 15:04

Ian Boddy / Chiasmata

Used drive : PIONEER DVD-RW DVR-110D Adapter: 5 ID: 0

Read mode : Secure
Utilize accurate stream : Yes
Defeat audio cache : Yes
Make use of C2 pointers : No

Read offset correction : 48
Overread into Lead-In and Lead-Out : No
Fill up missing offset samples with silence : Yes
Delete leading and trailing silent blocks : No
Null samples used in CRC calculations : Yes
Used interface : Installed external ASPI interface
Gap handling : Appended to previous track

Used output format : User Defined Encoder
Selected bitrate : 320 kBit/s
Quality : High
Add ID3 tag : Yes
Command line compressor : C:\Program Files\FLAC\flac.exe
Additional command line options : -V -6 -T "artist=%a" -T "title=%t" -T "album=%g" -T "date=%y" -T "tracknumber=%n" -T "genre=%m" %s


TOC of the extracted CD

Track | Start | Length | Start sector | End sector
––––––––––––––––––––––––––––-
1 | 0:00.00 | 3:39.60 | 0 | 16484
2 | 3:39.60 | 4:37.57 | 16485 | 37316
3 | 8:17.42 | 7:29.28 | 37317 | 71019
4 | 15:46.70 | 4:59.55 | 71020 | 93499
5 | 20:46.50 | 11:28.58 | 93500 | 145157
6 | 32:15.33 | 8:22.67 | 145158 | 182874
7 | 40:38.25 | 8:02.68 | 182875 | 219092
8 | 48:41.18 | 9:49.27 | 219093 | 263294
9 | 58:30.45 | 4:15.32 | 263295 | 282451
10 | 62:46.02 | 5:58.51 | 282452 | 309352


Track 1

Filename D:\Rips\Ian_Boddy_-_Chiasmata-(FLAC)-2004\01-Ian_Boddy_-_Gravity_Well.wav

Pre-gap length 0:00:02.00

Peak level 98.8 %
Track quality 99.9 %
Test CRC D0E35B19
Copy CRC D0E35B19
Track not present in AccurateRip database
Copy OK

Track 2

Filename D:\Rips\Ian_Boddy_-_Chiasmata-(FLAC)-2004\02-Ian_Boddy_-_Dark_Matter.wav

Pre-gap length 0:00:01.55

Peak level 98.8 %
Track quality 100.0 %
Test CRC 2C0E297E
Copy CRC 2C0E297E
Track not present in AccurateRip database
Copy OK

Track 3

Filename D:\Rips\Ian_Boddy_-_Chiasmata-(FLAC)-2004\03-Ian_Boddy_-_Ecliptic.wav

Pre-gap length 0:00:01.63

Peak level 98.8 %
Track quality 100.0 %
Test CRC 94D228B3
Copy CRC 94D228B3
Track not present in AccurateRip database
Copy OK

Track 4

Filename D:\Rips\Ian_Boddy_-_Chiasmata-(FLAC)-2004\04-Ian_Boddy_-_Lightfall.wav

Pre-gap length 0:00:01.61

Peak level 64.6 %
Track quality 100.0 %
Test CRC 821C8776
Copy CRC 821C8776
Track not present in AccurateRip database
Copy OK

Track 5

Filename D:\Rips\Ian_Boddy_-_Chiasmata-(FLAC)-2004\05-Ian_Boddy_-_Nucleotide.wav

Pre-gap length 0:00:01.51

Peak level 98.8 %
Track quality 100.0 %
Test CRC 7BD8028E
Copy CRC 7BD8028E
Track not present in AccurateRip database
Copy OK

Track 6

Filename D:\Rips\Ian_Boddy_-_Chiasmata-(FLAC)-2004\06-Ian_Boddy_-_The_Mystic.wav

Pre-gap length 0:00:01.60

Peak level 97.2 %
Track quality 100.0 %
Test CRC 83D46F37
Copy CRC 83D46F37
Track not present in AccurateRip database
Copy OK

Track 7

Filename D:\Rips\Ian_Boddy_-_Chiasmata-(FLAC)-2004\07-Ian_Boddy_-_Chiasmata.wav

Pre-gap length 0:00:01.56

Peak level 93.3 %
Track quality 100.0 %
Test CRC 276CC3F7
Copy CRC 276CC3F7
Track not present in AccurateRip database
Copy OK

Track 8

Filename D:\Rips\Ian_Boddy_-_Chiasmata-(FLAC)-2004\08-Ian_Boddy_-_Kinaesthesia.wav

Pre-gap length 0:00:01.57

Peak level 98.8 %
Track quality 100.0 %
Test CRC 843A1116
Copy CRC 843A1116
Track not present in AccurateRip database
Copy OK

Track 9

Filename D:\Rips\Ian_Boddy_-_Chiasmata-(FLAC)-2004\09-Ian_Boddy_-_Still_Point.wav

Pre-gap length 0:00:01.68

Peak level 88.0 %
Track quality 100.0 %
Test CRC 5278EE48
Copy CRC 5278EE48
Track not present in AccurateRip database
Copy OK

Track 10

Filename D:\Rips\Ian_Boddy_-_Chiasmata-(FLAC)-2004\10-Ian_Boddy_-_Mechanic_Organic.wav

Pre-gap length 0:00:01.56

Peak level 98.8 %
Track quality 100.0 %
Test CRC 62EE4170
Copy CRC 62EE4170
Track not present in AccurateRip database
Copy OK


None of the tracks are present in the AccurateRip database

No errors occurred

End of status report

[CUETools log; Date: 06.02.2017 22:24:32; Version: 2.1.4]
[CTDB TOCID: s3oDzr.dY4NuDsJlPHgxmjS0.Yc-] found.
Track | CTDB Status
1 | (2/2) Accurately ripped
2 | (2/2) Accurately ripped
3 | (2/2) Accurately ripped
4 | (2/2) Accurately ripped
5 | (2/2) Accurately ripped
6 | (2/2) Accurately ripped
7 | (2/2) Accurately ripped
8 | (2/2) Accurately ripped
9 | (2/2) Accurately ripped
10 | (2/2) Accurately ripped
[AccurateRip ID: 0018ba44-00cc6d81-92101c0a] found.
Track [ CRC | V2 ] Status
01 [f49e5adb|2d021182] (2+4/6) Accurately ripped
02 [718fe8bb|31da6c1c] (2+4/6) Accurately ripped
03 [753347f6|67ad7361] (2+4/6) Accurately ripped
04 [b159f761|c8f28b1b] (2+4/6) Accurately ripped
05 [d2337e1d|6b18a620] (2+4/6) Accurately ripped
06 [ec43870f|fbc9ddc8] (2+4/6) Accurately ripped
07 [5aa3ee68|fcc60ab4] (2+4/6) Accurately ripped
08 [e843dd8e|14564d13] (2+4/6) Accurately ripped
09 [28d6c921|9763a38a] (2+4/6) Accurately ripped
10 [df0b7834|8b648f50] (2+4/6) Accurately ripped

Track Peak [ CRC32 ] [W/O NULL] [ LOG ]
– 98,8 [31D80DD3] [C9990B95]
01 98,8 [D0E35B19] [D2F7CD83] CRC32
02 98,8 [2C0E297E] [ECD4A2AF] CRC32
03 98,8 [94D228B3] [C272EA92] CRC32
04 64,6 [821C8776] [AC154907] CRC32
05 98,8 [7BD8028E] [338CF755] CRC32
06 97,2 [83D46F37] [C6469A5C] CRC32
07 93,3 [276CC3F7] [1F1D36C0] CRC32
08 98,8 [843A1116] [7AA02A9B] CRC32
09 88,0 [5278EE48] [7D3E80F6] CRC32
10 98,8 [62EE4170] [D9D651F1] CRC32

Ian Boddy - 13 Albums (1983-2010) (Repost)

Ian Boddy & Markus Reuter - Pure (2004)
EAC Rip | FLAC (tracks+.cue+log) - 243 MB | MP3 CBR 320 kbps (LAME 3.93) - 131 MB | Covers - 6 MB
Genre: Electronic, Ambient | RAR 3% Rec. | Label: DiN (DiN 17)

Tracklist:
01. Presence
02. History
03. This Life
04. Glisten
05. Immersion
06. Clearing
07. The Source
08. The Level
09. Breathe
10. Fragments
11. Pure

Total time: 55:35

Exact Audio Copy V0.99 prebeta 4 from 23. January 2008

EAC extraction logfile from 3. August 2008, 23:20

Ian Boddy & Markus Reuter / Pure

Used drive : PIONEER DVD-RW DVR-110D Adapter: 5 ID: 0

Read mode : Secure
Utilize accurate stream : Yes
Defeat audio cache : Yes
Make use of C2 pointers : No

Read offset correction : 48
Overread into Lead-In and Lead-Out : No
Fill up missing offset samples with silence : Yes
Delete leading and trailing silent blocks : No
Null samples used in CRC calculations : Yes
Used interface : Installed external ASPI interface
Gap handling : Appended to previous track

Used output format : User Defined Encoder
Selected bitrate : 320 kBit/s
Quality : High
Add ID3 tag : Yes
Command line compressor : C:\Program Files\FLAC\flac.exe
Additional command line options : -V -6 -T "artist=%a" -T "title=%t" -T "album=%g" -T "date=%y" -T "tracknumber=%n" -T "genre=%m" %s


TOC of the extracted CD

Track | Start | Length | Start sector | End sector
––––––––––––––––––––––––––––-
1 | 0:00.00 | 3:50.70 | 0 | 17319
2 | 3:50.70 | 3:57.01 | 17320 | 35095
3 | 7:47.71 | 4:32.11 | 35096 | 55506
4 | 12:20.07 | 3:48.03 | 55507 | 72609
5 | 16:08.10 | 6:10.33 | 72610 | 100392
6 | 22:18.43 | 6:08.62 | 100393 | 128054
7 | 28:27.30 | 3:52.17 | 128055 | 145471
8 | 32:19.47 | 8:42.22 | 145472 | 184643
9 | 41:01.69 | 3:31.72 | 184644 | 200540
10 | 44:33.66 | 5:07.48 | 200541 | 223613
11 | 49:41.39 | 5:53.36 | 223614 | 250124


Track 1

Filename D:\Rips\Ian_Boddy_&_Markus_Reuter_-_Pure-(FLAC)-2004\01-Ian_Boddy_&_Markus_Reuter_-_Presence.wav

Pre-gap length 0:00:02.00

Peak level 98.8 %
Track quality 100.0 %
Test CRC 2E042084
Copy CRC 2E042084
Accurately ripped (confidence 1) [47D589AF]
Copy OK

Track 2

Filename D:\Rips\Ian_Boddy_&_Markus_Reuter_-_Pure-(FLAC)-2004\02-Ian_Boddy_&_Markus_Reuter_-_History.wav

Pre-gap length 0:00:02.28

Peak level 93.3 %
Track quality 100.0 %
Test CRC 16FF4503
Copy CRC 16FF4503
Accurately ripped (confidence 1) [C54A763A]
Copy OK

Track 3

Filename D:\Rips\Ian_Boddy_&_Markus_Reuter_-_Pure-(FLAC)-2004\03-Ian_Boddy_&_Markus_Reuter_-_This_Life.wav

Pre-gap length 0:00:02.58

Peak level 98.8 %
Track quality 100.0 %
Test CRC 4DBEC0C5
Copy CRC 4DBEC0C5
Accurately ripped (confidence 1) [407340EA]
Copy OK

Track 4

Filename D:\Rips\Ian_Boddy_&_Markus_Reuter_-_Pure-(FLAC)-2004\04-Ian_Boddy_&_Markus_Reuter_-_Glisten.wav

Pre-gap length 0:00:01.25

Peak level 98.8 %
Track quality 100.0 %
Test CRC 7B9193FA
Copy CRC 7B9193FA
Accurately ripped (confidence 1) [7F3BD597]
Copy OK

Track 5

Filename D:\Rips\Ian_Boddy_&_Markus_Reuter_-_Pure-(FLAC)-2004\05-Ian_Boddy_&_Markus_Reuter_-_Immersion.wav

Pre-gap length 0:00:01.52

Peak level 98.8 %
Track quality 100.0 %
Test CRC D1F99FF4
Copy CRC D1F99FF4
Accurately ripped (confidence 1) [1A032C9B]
Copy OK

Track 6

Filename D:\Rips\Ian_Boddy_&_Markus_Reuter_-_Pure-(FLAC)-2004\06-Ian_Boddy_&_Markus_Reuter_-_Clearing.wav

Pre-gap length 0:00:02.41

Peak level 94.0 %
Track quality 100.0 %
Test CRC A1AEFC73
Copy CRC A1AEFC73
Accurately ripped (confidence 1) [98F09742]
Copy OK

Track 7

Filename D:\Rips\Ian_Boddy_&_Markus_Reuter_-_Pure-(FLAC)-2004\07-Ian_Boddy_&_Markus_Reuter_-_The_Source.wav

Pre-gap length 0:00:02.31

Peak level 98.8 %
Track quality 100.0 %
Test CRC C87CABB3
Copy CRC C87CABB3
Accurately ripped (confidence 1) [A59F04FF]
Copy OK

Track 8

Filename D:\Rips\Ian_Boddy_&_Markus_Reuter_-_Pure-(FLAC)-2004\08-Ian_Boddy_&_Markus_Reuter_-_The_Level.wav

Pre-gap length 0:00:02.30

Peak level 98.8 %
Track quality 100.0 %
Test CRC 0392BA00
Copy CRC 0392BA00
Accurately ripped (confidence 1) [72758FEB]
Copy OK

Track 9

Filename D:\Rips\Ian_Boddy_&_Markus_Reuter_-_Pure-(FLAC)-2004\09-Ian_Boddy_&_Markus_Reuter_-_Breathe.wav

Pre-gap length 0:00:01.51

Peak level 98.8 %
Track quality 100.0 %
Test CRC 28347215
Copy CRC 28347215
Accurately ripped (confidence 1) [38BB487D]
Copy OK

Track 10

Filename D:\Rips\Ian_Boddy_&_Markus_Reuter_-_Pure-(FLAC)-2004\10-Ian_Boddy_&_Markus_Reuter_-_Fragments.wav

Pre-gap length 0:00:01.32

Peak level 98.8 %
Track quality 100.0 %
Test CRC 0961BA70
Copy CRC 0961BA70
Accurately ripped (confidence 1) [4D6C15A9]
Copy OK

Track 11

Filename D:\Rips\Ian_Boddy_&_Markus_Reuter_-_Pure-(FLAC)-2004\11-Ian_Boddy_&_Markus_Reuter_-_Pure.wav

Pre-gap length 0:00:01.32

Peak level 98.8 %
Track quality 100.0 %
Test CRC 2DBA841B
Copy CRC 2DBA841B
Accurately ripped (confidence 1) [B44B863F]
Copy OK


All tracks accurately ripped

No errors occurred

End of status report

[CUETools log; Date: 06.02.2017 22:29:17; Version: 2.1.4]
[CTDB TOCID: lMYRdGS40dlq5.tY6MekPYuV5h8-] found.
Track | CTDB Status
1 | (2/2) Accurately ripped
2 | (2/2) Accurately ripped
3 | (2/2) Accurately ripped
4 | (2/2) Accurately ripped
5 | (2/2) Accurately ripped
6 | (2/2) Accurately ripped
7 | (2/2) Accurately ripped
8 | (2/2) Accurately ripped
9 | (2/2) Accurately ripped
10 | (2/2) Accurately ripped
11 | (2/2) Accurately ripped
[AccurateRip ID: 00159101-00befa92-9a0d070b] found.
Track [ CRC | V2 ] Status
01 [47d589af|300fc5e6] (2+5/7) Accurately ripped
02 [c54a763a|751a8e3f] (2+5/7) Accurately ripped
03 [407340ea|cefa6559] (2+5/7) Accurately ripped
04 [7f3bd597|401e8bd1] (2+5/7) Accurately ripped
05 [1a032c9b|e37b3217] (2+5/7) Accurately ripped
06 [98f09742|e158cfd2] (2+5/7) Accurately ripped
07 [a59f04ff|ee7db609] (2+5/7) Accurately ripped
08 [72758feb|04a1cf54] (2+5/7) Accurately ripped
09 [38bb487d|48e2f1d7] (2+5/7) Accurately ripped
10 [4d6c15a9|58eb0e6c] (2+5/7) Accurately ripped
11 [b44b863f|900d9003] (2+5/7) Accurately ripped

Track Peak [ CRC32 ] [W/O NULL] [ LOG ]
– 98,8 [CE748ECB] [2C00EDB9]
01 98,8 [2E042084] [AD1423C1] CRC32
02 93,3 [16FF4503] [82E4BD40] CRC32
03 98,8 [4DBEC0C5] [BD9E9874] CRC32
04 98,8 [7B9193FA] [BDA93F9C] CRC32
05 98,8 [D1F99FF4] [36F18501] CRC32
06 94,0 [A1AEFC73] [5CA91243] CRC32
07 98,8 [C87CABB3] [0DF4DB5F] CRC32
08 98,8 [0392BA00] [89F1C3DB] CRC32
09 98,8 [28347215] [A5310661] CRC32
10 98,8 [0961BA70] [9214212A] CRC32
11 98,8 [2DBA841B] [623B2D06] CRC32

Ian Boddy - 13 Albums (1983-2010) (Repost)

Ian Boddy - Elemental (2006)
EAC Rip | FLAC (image+.cue+log) - 280 MB | MP3 CBR 320 kbps (LAME 3.93) - 123 MB | Covers - 66 MB
Genre: Electronic, Ambient | RAR 3% Rec. | Label: DiN (DiN25)

Tracklist:
01. Never Forever
02. Stormfront
03. If All The World Was Blue
04. Foundry
05. Reflex
06. Flux
07. All Roads Lead To Home
08. Elemental

Total time: 52:11

Exact Audio Copy V0.99 prebeta 3 from 28. July 2007

EAC extraction logfile from 8. December 2008, 3:16

Ian Boddy / Elemental

Used drive : LITE-ON DVDRW SOHW-812S Adapter: 1 ID: 2

Read mode : Secure
Utilize accurate stream : Yes
Defeat audio cache : Yes
Make use of C2 pointers : No

Read offset correction : 12
Overread into Lead-In and Lead-Out : No
Fill up missing offset samples with silence : Yes
Delete leading and trailing silent blocks : No
Null samples used in CRC calculations : Yes
Used interface : Installed external ASPI interface

Used output format : User Defined Encoder
Selected bitrate : 320 kBit/s
Quality : High
Add ID3 tag : No
Command line compressor : C:\Program Files\Exact Audio Copy\Flac\flac.exe
Additional command line options : –fast -T "ARTIST=%a" -T "TITLE=%t" -T "ALBUM=%g" -T "DATE=%y" -T "TRACKNUMBER=%n" -T "GENRE=%m" %s


TOC of the extracted CD

Track | Start | Length | Start sector | End sector
––––––––––––––––––––––––––––-
1 | 0:00.00 | 3:13.05 | 0 | 14479
2 | 3:13.05 | 5:55.65 | 14480 | 41169
3 | 9:08.70 | 4:52.39 | 41170 | 63108
4 | 14:01.34 | 7:38.41 | 63109 | 97499
5 | 21:40.00 | 9:36.71 | 97500 | 140770
6 | 31:16.71 | 6:02.18 | 140771 | 167938
7 | 37:19.14 | 7:37.21 | 167939 | 202234
8 | 44:56.35 | 7:14.43 | 202235 | 234827


Range status and errors

Selected range

Filename F:\Ian Boddy - Elemental.wav

Peak level 98.8 %
Range quality 99.9 %
Test CRC B6C79145
Copy CRC B6C79145
Copy OK

No errors occurred


AccurateRip summary

Track 1 not present in database
Track 2 not present in database
Track 3 not present in database
Track 4 not present in database
Track 5 not present in database
Track 6 not present in database
Track 7 not present in database
Track 8 not present in database

None of the tracks are present in the AccurateRip database

End of status report

[CUETools log; Date: 06.02.2017 22:32:44; Version: 2.1.4]
[CTDB TOCID: j49dh4sPmV4Q8A7v.nxCL1qWvw0-] found.
Track | CTDB Status
1 | (3/3) Accurately ripped
2 | (3/3) Accurately ripped
3 | (3/3) Accurately ripped
4 | (3/3) Accurately ripped
5 | (3/3) Accurately ripped
6 | (3/3) Accurately ripped
7 | (3/3) Accurately ripped
8 | (3/3) Accurately ripped
[AccurateRip ID: 000eadf0-006560e2-6a0c3b08] found.
Track [ CRC | V2 ] Status
01 [ed775751|8db850ed] (2+4/6) Accurately ripped
02 [d03119ce|ac8d4f9f] (2+4/6) Accurately ripped
03 [a78d2c48|30917d4f] (2+4/6) Accurately ripped
04 [8c78aa88|b4957dc0] (2+4/6) Accurately ripped
05 [670dcb33|a025d845] (2+4/6) Accurately ripped
06 [3c6f27fc|0e365613] (2+4/6) Accurately ripped
07 [14b877ab|994a392a] (2+4/6) Accurately ripped
08 [a5dccd52|732c27ba] (2+4/6) Accurately ripped

Track Peak [ CRC32 ] [W/O NULL] [ LOG ]
– 98,8 [B6C79145] [F3E496C4] CRC32
01 98,8 [854B1767] [6677E5FA]
02 98,8 [8864BF98] [9032301D]
03 89,3 [9591E898] [1F54F029]
04 98,8 [B5E23EF6] [7AE39DEA]
05 98,8 [7B8344FF] [04019C35]
06 89,1 [1BA472AC] [1B7965FE]
07 98,8 [48FF0659] [382C4E64]
08 98,8 [52E4B6C8] [7023E75B]

Ian Boddy - 13 Albums (1983-2010) (Repost)

Ian Boddy - Pearl [Compilation] (2010)
EAC Rip | FLAC (tracks+.cue+log) - 886 MB | MP3 CBR 320 kbps (LAME 3.93) - 355 MB | Covers - 6 MB
Genre: Traditional Electronic, Berlin School, Ambient | RAR 3% Rec. | Label: DiN (DiN36)

CD 1 Tracklist (Outer DiN):
01. Hyperion
02. Aquanaut
03. Continuum - Alpha
04. Sequence in Blue
05. Floating
06. Beyond The Event Horizon
07. Who Controls Who
08. Heavens Gate
09. Living In A Ritual
10. Shrouded
11. The Climb
12. Outer Limits
13. Skylights
14. Metropolis
15. Living Planet

Total time: 01:16:06

CD 2 Tracklist (Inner DiN):
01. Never Forever
02. Walking The Slow Path
03. Coriolis
04. Chiasmata
05. Atomicity
06. The Mechanics Of A Thought
07. Presentation Of An Offering
08. Moiré
09. Edge Of Nowhere
10. Aurora
11. Arc - Angel
12. Troubadour
13. Elemental

Total time: 01:14:48

Exact Audio Copy V0.99 prebeta 5 from 4. May 2009

EAC extraction logfile from 28. October 2010, 20:40

Various / Pearl: Outer DiN

Used drive : PLEXTOR DVDR PX-800A Adapter: 0 ID: 0

Read mode : Secure
Utilize accurate stream : Yes
Defeat audio cache : Yes
Make use of C2 pointers : No

Read offset correction : 48
Overread into Lead-In and Lead-Out : No
Fill up missing offset samples with silence : Yes
Delete leading and trailing silent blocks : No
Null samples used in CRC calculations : Yes
Used interface : Native Win32 interface for Win NT & 2000
Gap handling : Appended to previous track

Used output format : User Defined Encoder
Selected bitrate : 1024 kBit/s
Quality : High
Add ID3 tag : No
Command line compressor : C:\Program Files\Exact Audio Copy\FLAC\FLAC.EXE
Additional command line options : -6 -V -T "ARTIST=%a" -T "TITLE=%t" -T "ALBUM=%g" -T "DATE=%y" -T "TRACKNUMBER=%n" -T "GENRE=%m" -T "COMMENT=%e" %s -o %d


TOC of the extracted CD

Track | Start | Length | Start sector | End sector
––––––––––––––––––––––––––––-
1 | 0:00.00 | 5:27.59 | 0 | 24583
2 | 5:27.59 | 5:50.39 | 24584 | 50872
3 | 11:18.23 | 6:50.35 | 50873 | 81657
4 | 18:08.58 | 6:19.73 | 81658 | 110155
5 | 24:28.56 | 5:51.18 | 110156 | 136498
6 | 30:19.74 | 5:15.72 | 136499 | 160195
7 | 35:35.71 | 3:21.66 | 160196 | 175336
8 | 38:57.62 | 5:36.12 | 175337 | 200548
9 | 44:33.74 | 4:13.43 | 200549 | 219566
10 | 48:47.42 | 5:19.14 | 219567 | 243505
11 | 54:06.56 | 6:44.06 | 243506 | 273811
12 | 60:50.62 | 5:17.16 | 273812 | 297602
13 | 66:08.03 | 3:57.17 | 297603 | 315394
14 | 70:05.20 | 3:15.38 | 315395 | 330057
15 | 73:20.58 | 2:45.17 | 330058 | 342449


Track 1

Filename C:\Temp\01. Ian Boddy - Hyperion.wav

Pre-gap length 0:00:02.00

Peak level 97.7 %
Track quality 100.0 %
Test CRC 5DD6BBD8
Copy CRC 5DD6BBD8
Track not present in AccurateRip database
Copy OK

Track 2

Filename C:\Temp\02. Ian Boddy - Aquanaut.wav

Peak level 97.7 %
Track quality 100.0 %
Test CRC 639C5782
Copy CRC 639C5782
Track not present in AccurateRip database
Copy OK

Track 3

Filename C:\Temp\03. Ian Boddy - Continuum , Alpha.wav

Peak level 97.7 %
Track quality 100.0 %
Test CRC 01E05E3D
Copy CRC 01E05E3D
Track not present in AccurateRip database
Copy OK

Track 4

Filename C:\Temp\04. Ian Boddy - Sequence in Blue.wav

Peak level 97.7 %
Track quality 100.0 %
Test CRC B1BBA6A9
Copy CRC B1BBA6A9
Track not present in AccurateRip database
Copy OK

Track 5

Filename C:\Temp\05. Ian Boddy - Floating.wav

Peak level 97.7 %
Track quality 100.0 %
Test CRC 17D4AE9F
Copy CRC 17D4AE9F
Track not present in AccurateRip database
Copy OK

Track 6

Filename C:\Temp\06. Ian Boddy - Beyond the Event Horizon.wav

Peak level 97.7 %
Track quality 100.0 %
Test CRC 069DFF76
Copy CRC 069DFF76
Track not present in AccurateRip database
Copy OK

Track 7

Filename C:\Temp\07. Ian Boddy - Who Controls Who.wav

Peak level 97.7 %
Track quality 99.9 %
Test CRC 313A315A
Copy CRC 313A315A
Track not present in AccurateRip database
Copy OK

Track 8

Filename C:\Temp\08. Ian Boddy - Heavens Gate.wav

Peak level 97.7 %
Track quality 100.0 %
Test CRC EF88FC18
Copy CRC EF88FC18
Track not present in AccurateRip database
Copy OK

Track 9

Filename C:\Temp\09. Ian Boddy & Brian Ross - Living in a Ritual.wav

Peak level 97.7 %
Track quality 100.0 %
Test CRC 5C911E01
Copy CRC 5C911E01
Track not present in AccurateRip database
Copy OK

Track 10

Filename C:\Temp\10. Ian Boddy - Shrouded.wav

Peak level 97.7 %
Track quality 100.0 %
Test CRC B293C0FE
Copy CRC B293C0FE
Track not present in AccurateRip database
Copy OK

Track 11

Filename C:\Temp\11. Ian Boddy - The Climb.wav

Peak level 97.7 %
Track quality 100.0 %
Test CRC 5FACD923
Copy CRC 5FACD923
Track not present in AccurateRip database
Copy OK

Track 12

Filename C:\Temp\12. Ian Boddy - Outer Limits.wav

Peak level 97.7 %
Track quality 100.0 %
Test CRC C64A5DF3
Copy CRC C64A5DF3
Track not present in AccurateRip database
Copy OK

Track 13

Filename C:\Temp\13. Ian Boddy - Skylights.wav

Peak level 97.7 %
Track quality 100.0 %
Test CRC 033A53A5
Copy CRC 033A53A5
Track not present in AccurateRip database
Copy OK

Track 14

Filename C:\Temp\14. Ian Boddy - Metropolis.wav

Peak level 97.7 %
Track quality 100.0 %
Test CRC 89D5A9CB
Copy CRC 89D5A9CB
Track not present in AccurateRip database
Copy OK

Track 15

Filename C:\Temp\15. Ian Boddy - Living Planet.wav

Peak level 97.7 %
Track quality 100.0 %
Test CRC 103A4A88
Copy CRC 103A4A88
Track not present in AccurateRip database
Copy OK


None of the tracks are present in the AccurateRip database

No errors occurred

End of status report

[CUETools log; Date: 06.02.2017 22:34:10; Version: 2.1.4]
[CTDB TOCID: XwCjk5tzAdwH9QJ7JS7Oly8AZ.U-] found.
Track | CTDB Status
1 | (2/2) Accurately ripped
2 | (2/2) Accurately ripped
3 | (2/2) Accurately ripped
4 | (2/2) Accurately ripped
5 | (2/2) Accurately ripped
6 | (2/2) Accurately ripped
7 | (2/2) Accurately ripped
8 | (2/2) Accurately ripped
9 | (2/2) Accurately ripped
10 | (2/2) Accurately ripped
11 | (2/2) Accurately ripped
12 | (2/2) Accurately ripped
13 | (2/2) Accurately ripped
14 | (2/2) Accurately ripped
15 | (2/2) Accurately ripped
[AccurateRip ID: 002d3343-01f91736-d311d60f] found.
Track [ CRC | V2 ] Status
01 [b04b9969|9abfd5f9] (2+0/2) Accurately ripped
02 [6dbe26ae|c7eef341] (2+0/2) Accurately ripped
03 [2f2b4f48|ad93fd6a] (2+0/2) Accurately ripped
04 [d60971a4|9476785c] (2+0/2) Accurately ripped
05 [41f8f8e6|9593abad] (2+0/2) Accurately ripped
06 [8fc3e09d|80d8aa7a] (2+0/2) Accurately ripped
07 [4b38443c|72faef0f] (2+0/2) Accurately ripped
08 [623307b9|3ed300a5] (2+0/2) Accurately ripped
09 [06ecec89|b7e5ecfb] (2+0/2) Accurately ripped
10 [c7bb2b21|2ac954f6] (2+0/2) Accurately ripped
11 [e1eaa1b7|234659af] (2+0/2) Accurately ripped
12 [c35cc9bc|f4d13dce] (2+0/2) Accurately ripped
13 [8995d0ff|881f9db4] (2+0/2) Accurately ripped
14 [0cec6e81|a7c5ea38] (2+0/2) Accurately ripped
15 [04d3e71c|62370810] (2+0/2) Accurately ripped

Track Peak [ CRC32 ] [W/O NULL] [ LOG ]
– 97,7 [C7566580] [BC5C47A4]
01 97,7 [5DD6BBD8] [DA7B80CE] CRC32
02 97,7 [639C5782] [E2F76F12] CRC32
03 97,7 [01E05E3D] [5E35F225] CRC32
04 97,7 [B1BBA6A9] [37A4876D] CRC32
05 97,7 [17D4AE9F] [84C05FAF] CRC32
06 97,7 [069DFF76] [0B129C23] CRC32
07 97,7 [313A315A] [316EACE0] CRC32
08 97,7 [EF88FC18] [E96EF346] CRC32
09 97,7 [5C911E01] [EE53F134] CRC32
10 97,7 [B293C0FE] [3AF1C2CF] CRC32
11 97,7 [5FACD923] [F908AC3F] CRC32
12 97,7 [C64A5DF3] [236C5484] CRC32
13 97,7 [033A53A5] [E884211C] CRC32
14 97,7 [89D5A9CB] [61ABE1AE] CRC32
15 97,7 [103A4A88] [0EE2B57F] CRC32

Exact Audio Copy V0.99 prebeta 5 from 4. May 2009

EAC extraction logfile from 29. October 2010, 0:28

Various / Pearl: Inner DiN

Used drive : PLEXTOR DVDR PX-800A Adapter: 0 ID: 0

Read mode : Secure
Utilize accurate stream : Yes
Defeat audio cache : Yes
Make use of C2 pointers : No

Read offset correction : 48
Overread into Lead-In and Lead-Out : No
Fill up missing offset samples with silence : Yes
Delete leading and trailing silent blocks : No
Null samples used in CRC calculations : Yes
Used interface : Native Win32 interface for Win NT & 2000
Gap handling : Appended to previous track

Used output format : User Defined Encoder
Selected bitrate : 1024 kBit/s
Quality : High
Add ID3 tag : No
Command line compressor : C:\Program Files\Exact Audio Copy\FLAC\FLAC.EXE
Additional command line options : -6 -V -T "ARTIST=%a" -T "TITLE=%t" -T "ALBUM=%g" -T "DATE=%y" -T "TRACKNUMBER=%n" -T "GENRE=%m" -T "COMMENT=%e" %s -o %d


TOC of the extracted CD

Track | Start | Length | Start sector | End sector
––––––––––––––––––––––––––––-
1 | 0:00.00 | 2:46.14 | 0 | 12463
2 | 2:46.14 | 6:24.56 | 12464 | 41319
3 | 9:10.70 | 7:47.22 | 41320 | 76366
4 | 16:58.17 | 6:52.18 | 76367 | 107284
5 | 23:50.35 | 4:15.12 | 107285 | 126421
6 | 28:05.47 | 4:50.50 | 126422 | 148221
7 | 32:56.22 | 4:32.16 | 148222 | 168637
8 | 37:28.38 | 5:48.73 | 168638 | 194810
9 | 43:17.36 | 5:43.56 | 194811 | 220591
10 | 49:01.17 | 9:01.72 | 220592 | 261238
11 | 58:03.14 | 5:30.73 | 261239 | 286061
12 | 63:34.12 | 4:48.00 | 286062 | 307661
13 | 68:22.12 | 6:25.63 | 307662 | 336599


Track 1

Filename C:\Temp\01. Ian Boddy - Never Forever.wav

Pre-gap length 0:00:02.00

Peak level 97.7 %
Track quality 100.0 %
Test CRC 851128C8
Copy CRC 851128C8
Track not present in AccurateRip database
Copy OK

Track 2

Filename C:\Temp\02. Ian Boddy - Walking the Slow Path.wav

Peak level 97.7 %
Track quality 100.0 %
Test CRC 9EF659AE
Copy CRC 9EF659AE
Track not present in AccurateRip database
Copy OK

Track 3

Filename C:\Temp\03. Ian Boddy & Chris Carter - Coriolis.wav

Peak level 97.7 %
Track quality 100.0 %
Test CRC E08FBFC5
Copy CRC E08FBFC5
Track not present in AccurateRip database
Copy OK

Track 4

Filename C:\Temp\04. Ian Boddy - Chiasmata.wav

Peak level 97.7 %
Track quality 100.0 %
Test CRC 1629971B
Copy CRC 1629971B
Track not present in AccurateRip database
Copy OK

Track 5

Filename C:\Temp\05. Dub Atomica - Atomicity.wav

Peak level 97.7 %
Track quality 100.0 %
Test CRC 38AED6AD
Copy CRC 38AED6AD
Track not present in AccurateRip database
Copy OK

Track 6

Filename C:\Temp\06. Ian Boddy - The Mechanics of a Thought.wav

Peak level 64.3 %
Track quality 100.0 %
Test CRC 81033260
Copy CRC 81033260
Track not present in AccurateRip database
Copy OK

Track 7

Filename C:\Temp\07. Ian Boddy & Markus Reuter - Presentation of an Offering.wav

Peak level 97.7 %
Track quality 100.0 %
Test CRC E8E78FE3
Copy CRC E8E78FE3
Track not present in AccurateRip database
Copy OK

Track 8

Filename C:\Temp\08. Ian Boddy & Bernhard Woestheinrich - Moire.wav

Peak level 97.7 %
Track quality 100.0 %
Test CRC A3BA04D4
Copy CRC A3BA04D4
Track not present in AccurateRip database
Copy OK

Track 9

Filename C:\Temp\09. Robert Rich & Ian Boddy - Edge of Nowhere.wav

Peak level 97.7 %
Track quality 100.0 %
Test CRC 65CE4BB1
Copy CRC 65CE4BB1
Track not present in AccurateRip database
Copy OK

Track 10

Filename C:\Temp\10. Ian Boddy - Aurora.wav

Peak level 86.0 %
Track quality 100.0 %
Test CRC 281C12B5
Copy CRC 281C12B5
Track not present in AccurateRip database
Copy OK

Track 11

Filename C:\Temp\11. Arc - Arc , Angel.wav

Peak level 97.7 %
Track quality 100.0 %
Test CRC 09B85A98
Copy CRC 09B85A98
Track not present in AccurateRip database
Copy OK

Track 12

Filename C:\Temp\12. Ian Boddy - Troubadour.wav

Peak level 97.7 %
Track quality 100.0 %
Test CRC 1B2C0FF3
Copy CRC 1B2C0FF3
Track not present in AccurateRip database
Copy OK

Track 13

Filename C:\Temp\13. Ian Boddy - Elemental.wav

Peak level 97.7 %
Track quality 99.9 %
Test CRC 5273571B
Copy CRC 5273571B
Track not present in AccurateRip database
Copy OK


None of the tracks are present in the AccurateRip database

No errors occurred

End of status report

[CUETools log; Date: 06.02.2017 22:34:35; Version: 2.1.4]
[CTDB TOCID: 6Ng1eE27tb0ibd1SrSZherPccWw-] found.
Track | CTDB Status
1 | (2/2) Accurately ripped
2 | (2/2) Accurately ripped
3 | (2/2) Accurately ripped
4 | (2/2) Accurately ripped
5 | (2/2) Accurately ripped
6 | (2/2) Accurately ripped
7 | (2/2) Accurately ripped
8 | (2/2) Accurately ripped
9 | (2/2) Accurately ripped
10 | (2/2) Accurately ripped
11 | (2/2) Accurately ripped
12 | (2/2) Accurately ripped
13 | (2/2) Accurately ripped
[AccurateRip ID: 0022e844-0160af62-bc11880d] found.
Track [ CRC | V2 ] Status
01 [0ffe9ec6|a9828ee3] (2+0/2) Accurately ripped
02 [57c7d33d|cebfa869] (2+0/2) Accurately ripped
03 [cf4d7d15|a3b7e372] (2+0/2) Accurately ripped
04 [840ae3ef|409ca4df] (2+0/2) Accurately ripped
05 [00f54533|4fd71140] (2+0/2) Accurately ripped
06 [7dce5da7|6eeb5f9b] (2+0/2) Accurately ripped
07 [75b1ff63|1a81140c] (2+0/2) Accurately ripped
08 [711d4176|dd33f1cf] (2+0/2) Accurately ripped
09 [feca49a0|bde9e571] (2+0/2) Accurately ripped
10 [094763d6|76288c39] (2+0/2) Accurately ripped
11 [9219c1ee|864de248] (2+0/2) Accurately ripped
12 [49249d26|c8928567] (2+0/2) Accurately ripped
13 [771491b8|51e23e0b] (2+0/2) Accurately ripped

Track Peak [ CRC32 ] [W/O NULL] [ LOG ]
– 97,7 [B3A66F5E] [E9CE0FE9]
01 97,7 [851128C8] [1114F5A4] CRC32
02 97,7 [9EF659AE] [251FF1E4] CRC32
03 97,7 [E08FBFC5] [C6260A20] CRC32
04 97,7 [1629971B] [7D0713E0] CRC32
05 97,7 [38AED6AD] [19FE1312] CRC32
06 64,3 [81033260] [8C897067] CRC32
07 97,7 [E8E78FE3] [616C187F] CRC32
08 97,7 [A3BA04D4] [A80DFA2F] CRC32
09 97,7 [65CE4BB1] [6FFA0EE5] CRC32
10 86,0 [281C12B5] [E87E423C] CRC32
11 97,7 [09B85A98] [0939DA2A] CRC32
12 97,7 [1B2C0FF3] [295240AC] CRC32
13 97,7 [5273571B] [13A27151] CRC32

Thanks to Key, mr_suicide, Zest101, EPSmuz, Holon (ariom)

See also:
Robert Rich & Ian Boddy - Outpost (2002)
Robert Rich & Ian Boddy - Lithosphere (2005)
Robert Rich & Ian Boddy - React (2008)
ARC - Fracture (2007)
ARC - Church (2010)