Subcategories

tUnE-yArDs - I can feel you creep into my private life (2018)

Posted By: SERTiL
tUnE-yArDs - I can feel you creep into my private life (2018)

tUnE-yArDs - I can feel you creep into my private life (2018)
EAC Rip | FLAC (tracks)+cue, log, m3u, front cover | 275 MB
Label: 4AD – 4AD 0052CD | Tracks: 12 | Time: 44:13 min
Indie Pop, Alternative

Tune-Yards’ magnum opus will arrive on January 19 in the form of new album I can feel you creep into my private life. Thematically, the 12 new songs tackle race, politics, intersectional feminism and environmental prophecies head on. But in the billows of intense subject matter, the album arrives as Tune-Yards’ most immediate and upbeat music yet- this is Tune-Yards’ music to dance to. On I can feel you creep into my private life, Tune-Yards is officially a duo. Garbus is joined by longtime collaborator Nate Brenner who produced and wrote the album together with lyrics by Garbus. Tune-Yards worked with mixer Mikaelin “Blue” BlueSpruce (Solange, Kendrick Lamar). Tune-Yards’ 2014 release Nikki Nack was one of the most well received albums of the year. New York Magazine called it “possibly the catchiest record of the year,” the New Yorker praised its “joyful energy” and “surprisingly sweet singing and catchy tunes,” and Entertainment Weekly said “life needs joyful noise like this.” Since the release of Nikki Nack, Tune-Yards has kept busy collaborating with legendary musicians David Byrne, Laurie Anderson and Yoko Ono, as well as penning the standout track, “Action,” from Mavis Staples’ 2016 album.



Tracklist:
1. Heart Attack (03:43)
2. Coast to Coast (03:55)
3. ABC 123 (03:34)
4. Now as Then (03:52)
5. Honesty (03:38)
6. Colonizer (03:54)
7. Look at Your Hands (03:46)
8. Home (04:18)
9. Hammer (03:15)
10. Who Are You (03:17)
11. Private Life (03:20)
12. Free (03:41)

Exact Audio Copy V1.0 beta 4 from 7. December 2014

EAC extraction logfile from 20. January 2018, 20:05

tUnE-yArDs / I can feel you creep into my private life

Used drive : ATAPI iHAS124 W Adapter: 1 ID: 1

Read mode : Secure
Utilize accurate stream : Yes
Defeat audio cache : Yes
Make use of C2 pointers : No

Read offset correction : 48
Overread into Lead-In and Lead-Out : No
Fill up missing offset samples with silence : Yes
Delete leading and trailing silent blocks : No
Null samples used in CRC calculations : Yes
Used interface : Native Win32 interface for Win NT & 2000
Gap handling : Appended to previous track

Used output format : User Defined Encoder
Selected bitrate : 1024 kBit/s
Quality : High
Add ID3 tag : No
Command line compressor : C:\Program Files (x86)\Exact Audio Copy\Flac\flac.exe
Additional command line options : -8 -V -T "ARTIST=%artist%" -T "TITLE=%title%" -T "ALBUM=%albumtitle%" -T "DATE=%year%" -T "TRACKNUMBER=%tracknr%" -T "GENRE=%genre%" -T "PERFORMER=%albuminterpret%" -T "COMPOSER=%composer%" %haslyrics%–tag-from-file=LYRICS="%lyricsfile%"%haslyrics% -T "ALBUMARTIST=%albumartist%" -T "DISCNUMBER=%cdnumber%" -T "TOTALDISCS=%totalcds%" -T "TOTALTRACKS=%numtracks%" -T "COMMENT=%comment%" %source% -o %dest%


TOC of the extracted CD

Track | Start | Length | Start sector | End sector
––––––––––––––––––––––––––––-
1 | 0:00.00 | 3:43.74 | 0 | 16798
2 | 3:43.74 | 3:55.66 | 16799 | 34489
3 | 7:39.65 | 3:34.21 | 34490 | 50560
4 | 11:14.11 | 3:52.23 | 50561 | 67983
5 | 15:06.34 | 3:38.68 | 67984 | 84401
6 | 18:45.27 | 3:54.31 | 84402 | 101982
7 | 22:39.58 | 3:46.03 | 101983 | 118935
8 | 26:25.61 | 4:18.12 | 118936 | 138297
9 | 30:43.73 | 3:15.09 | 138298 | 152931
10 | 33:59.07 | 3:17.52 | 152932 | 167758
11 | 37:16.59 | 3:20.03 | 167759 | 182761
12 | 40:36.62 | 3:41.69 | 182762 | 199405


Track 1

Filename C:\new flac rips\tUnE-yArDs - 2018 - I can feel you creep into my private life (4AD 0052CD)\01 Heart Attack.wav

Pre-gap length 0:00:02.00

Peak level 100.0 %
Extraction speed 4.2 X
Track quality 100.0 %
Test CRC D8A603CB
Copy CRC D8A603CB
Track not present in AccurateRip database
Copy OK

Track 2

Filename C:\new flac rips\tUnE-yArDs - 2018 - I can feel you creep into my private life (4AD 0052CD)\02 Coast to Coast.wav

Peak level 100.0 %
Extraction speed 4.7 X
Track quality 100.0 %
Test CRC 63885F21
Copy CRC 63885F21
Track not present in AccurateRip database
Copy OK

Track 3

Filename C:\new flac rips\tUnE-yArDs - 2018 - I can feel you creep into my private life (4AD 0052CD)\03 ABC 123.wav

Peak level 100.0 %
Extraction speed 4.9 X
Track quality 100.0 %
Test CRC C83B3A3A
Copy CRC C83B3A3A
Track not present in AccurateRip database
Copy OK

Track 4

Filename C:\new flac rips\tUnE-yArDs - 2018 - I can feel you creep into my private life (4AD 0052CD)\04 Now as Then.wav

Peak level 100.0 %
Extraction speed 5.4 X
Track quality 100.0 %
Test CRC FB1AC0F1
Copy CRC FB1AC0F1
Track not present in AccurateRip database
Copy OK

Track 5

Filename C:\new flac rips\tUnE-yArDs - 2018 - I can feel you creep into my private life (4AD 0052CD)\05 Honesty.wav

Peak level 100.0 %
Extraction speed 5.7 X
Track quality 100.0 %
Test CRC 56A50251
Copy CRC 56A50251
Track not present in AccurateRip database
Copy OK

Track 6

Filename C:\new flac rips\tUnE-yArDs - 2018 - I can feel you creep into my private life (4AD 0052CD)\06 Colonizer.wav

Peak level 100.0 %
Extraction speed 6.0 X
Track quality 100.0 %
Test CRC 7F57DA6D
Copy CRC 7F57DA6D
Track not present in AccurateRip database
Copy OK

Track 7

Filename C:\new flac rips\tUnE-yArDs - 2018 - I can feel you creep into my private life (4AD 0052CD)\07 Look at Your Hands.wav

Peak level 100.0 %
Extraction speed 6.4 X
Track quality 100.0 %
Test CRC D0E35B77
Copy CRC D0E35B77
Track not present in AccurateRip database
Copy OK

Track 8

Filename C:\new flac rips\tUnE-yArDs - 2018 - I can feel you creep into my private life (4AD 0052CD)\08 Home.wav

Peak level 100.0 %
Extraction speed 6.7 X
Track quality 100.0 %
Test CRC E74C56DA
Copy CRC E74C56DA
Track not present in AccurateRip database
Copy OK

Track 9

Filename C:\new flac rips\tUnE-yArDs - 2018 - I can feel you creep into my private life (4AD 0052CD)\09 Hammer.wav

Peak level 100.0 %
Extraction speed 6.7 X
Track quality 100.0 %
Test CRC BCB0F8A7
Copy CRC BCB0F8A7
Track not present in AccurateRip database
Copy OK

Track 10

Filename C:\new flac rips\tUnE-yArDs - 2018 - I can feel you creep into my private life (4AD 0052CD)\10 Who Are You.wav

Peak level 100.0 %
Extraction speed 7.0 X
Track quality 100.0 %
Test CRC 2A2446E8
Copy CRC 2A2446E8
Track not present in AccurateRip database
Copy OK

Track 11

Filename C:\new flac rips\tUnE-yArDs - 2018 - I can feel you creep into my private life (4AD 0052CD)\11 Private Life.wav

Peak level 100.0 %
Extraction speed 6.9 X
Track quality 100.0 %
Test CRC A84790DF
Copy CRC A84790DF
Track not present in AccurateRip database
Copy OK

Track 12

Filename C:\new flac rips\tUnE-yArDs - 2018 - I can feel you creep into my private life (4AD 0052CD)\12 Free.wav

Peak level 100.0 %
Extraction speed 7.5 X
Track quality 100.0 %
Test CRC 2DAF9E3A
Copy CRC 2DAF9E3A
Track not present in AccurateRip database
Copy OK


None of the tracks are present in the AccurateRip database

No errors occurred

End of status report

–– CUETools DB Plugin V2.1.4

[CTDB TOCID: Y1CF3rmsdDEDzAHxQ8np1Qm_ay0-] found
Submit result: Y1CF3rmsdDEDzAHxQ8np1Qm_ay0- has been confirmed
Track | CTDB Status
1 | (1/1) Accurately ripped
2 | (1/1) Accurately ripped
3 | (1/1) Accurately ripped
4 | (1/1) Accurately ripped
5 | (1/1) Accurately ripped
6 | (1/1) Accurately ripped
7 | (1/1) Accurately ripped
8 | (1/1) Accurately ripped
9 | (1/1) Accurately ripped
10 | (1/1) Accurately ripped
11 | (1/1) Accurately ripped
12 | (1/1) Accurately ripped


==== Log checksum 51E26550FAB25CBB6CB399C3A122A4301B81A5A77505A0820330906C6C054315 ====


Thanks to the Original customer.