Subcategories

Icon: Deep Purple (2012)

Posted By: v3122
Icon: Deep Purple (2012)

Icon: Deep Purple (2012)
EAC Rip | Flac(Image) + Cue + Log & iPod M4A(Tracks) & MP3 CBR 320Kbps
Hard Rock | ~ 466 or 469 or 168 Mb | Scans(Png, 300dpi) -> 105 Mb
Universal International, 4605026712294 | Russia

Despite the band's constant personnel changes, which featured a revolving cast that included Ritchie Blackmore, David Coverdale, and Ian Gillan at one time or another, Deep Purple's then-innovative blend of hard rock, prog rock histrionics, and nascent heavy metal in the early '70s makes them, in retrospect, the perfect template for bands like Led Zeppelin, who then pushed hard rock toward hair band metal later in the decade. This CD makes an OK introduction to the group's legacy, but not a great one, since the versions collected here of the band's biggest hits "Smoke on the Water," their cover of Joe South's "Hush," "Woman from Tokyo," and "Strange Kind of Woman" are all live versions and not the original radio mixes. The live versions are both credible and fine, but Deep Purple was really one of the first arena bands, which forced them to draw large strokes in concert, and the versions here lack some of the precision of the original singles. That said, there are some cool cuts included of songs that are lesser known but no less memorable like "Knocking at Your Back Door" and "Perfect Strangers" (which sounds like Led Zeppelin before there was a Led Zeppelin), and all of it adds up to a fair survey of what this band was all about – you'll find yourself wanting to hear the original single versions of the big hits, though.

by Steve Leggett
Icon: Deep Purple (2012):

Icon: Deep Purple (2012)

Tracklist:

01. Smoke On The Water (1987/Live In Oslo, Norway) - 7:46
02. Hush (Live Version) - 3:30
03. Woman From Tokyo (Live (1987 / Irvine Meadows, CA)) - 4:00
04. Knocking At Your Back Door (Album Version) - 7:00
05. Call Of The Wild - 4:50
06. Perfect Strangers (Album Version) - 5:23
07. Bad Attitude - 5:07
08. Nobody's Home - 3:55
09. Strange Kind Of Woman (Live) - 7:18
10. The Unwritten Law - 4:35
11. Hard Lovin' Woman - 3:24
12. Dead Or Alive - 4:42
13. Hungry Daze - 4:53

Exact Audio Copy V1.0 beta 3 from 29. August 2011

Отчёт EAC об извлечении, выполненном 15. февраля 2013, 18:34

Deep Purple / Icon: Deep Purple

Дисковод: Optiarc DVD RW AD-7200A Adapter: 4 ID: 0

Режим чтения : Достоверность
Использование точного потока : Да
Отключение кэша аудио : Да
Использование указателей C2 : Нет

Коррекция смещения при чтении : 48
Способность читать области Lead-in и Lead-out : Нет
Заполнение пропущенных сэмплов тишиной : Да
Удаление блоков с тишиной в начале и конце : Нет
При вычислениях CRC использовались нулевые сэмплы : Да
Интерфейс : Встроенный Win32-интерфейс для Win NT/2000

Выходной формат : Пользовательский кодировщик
Выбранный битрейт : 128 kBit/s
Качество : Высокий
Добавление ID3-тега : Нет
Утилита сжатия : C:\Program Files (x86)\Exact Audio Copy\FLAC\FLAC.EXE
Дополнительные параметры : -V -8 -T "Date=%year%" -T "Genre=%genre%" %source%


TOC извлечённого CD

Трек | Старт | Длительность | Начальный сектор | Конечный сектор
––––––––––––––––––––––––––––––––––-
1 | 0:00.00 | 7:44.13 | 0 | 34812
2 | 7:44.13 | 3:29.55 | 34813 | 50542
3 | 11:13.68 | 4:00.29 | 50543 | 68571
4 | 15:14.22 | 7:00.56 | 68572 | 100127
5 | 22:15.03 | 4:51.08 | 100128 | 121960
6 | 27:06.11 | 5:27.14 | 121961 | 146499
7 | 32:33.25 | 5:06.55 | 146500 | 169504
8 | 37:40.05 | 3:57.65 | 169505 | 187344
9 | 41:37.70 | 7:16.23 | 187345 | 220067
10 | 48:54.18 | 4:35.31 | 220068 | 240723
11 | 53:29.49 | 3:25.14 | 240724 | 256112
12 | 56:54.63 | 4:43.23 | 256113 | 277360
13 | 61:38.11 | 4:59.02 | 277361 | 299787


Характеристики диапазона извлечения и сообщения об ошибках

Выбранный диапазон

Имя файла E:\Temp\Deep Purple - Icon_Deep Purple\Deep Purple - Icon- Deep Purple.wav

Пиковый уровень 100.0 %
Скорость извлечения 4.1 X
Качество диапазона 100.0 %
CRC теста 4168D1A9
CRC копии 4168D1A9
Копирование… OK

Ошибок не произошло


AccurateRip: сводка

Трек 1 отсутствует в базе данных
Трек 2 отсутствует в базе данных
Трек 3 отсутствует в базе данных
Трек 4 отсутствует в базе данных
Трек 5 отсутствует в базе данных
Трек 6 отсутствует в базе данных
Трек 7 отсутствует в базе данных
Трек 8 отсутствует в базе данных
Трек 9 отсутствует в базе данных
Трек 10 отсутствует в базе данных
Трек 11 отсутствует в базе данных
Трек 12 отсутствует в базе данных
Трек 13 отсутствует в базе данных

Ни одного трека нет в базе AccurateRip

Конец отчёта

foobar2000 1.1.18 / Dynamic Range Meter 1.1.1
log date: 2013-02-18 11:19:09

––––––––––––––––––––––––––––––––––––––––
Analyzed: Deep Purple / Icon: Deep Purple
––––––––––––––––––––––––––––––––––––––––

DR Peak RMS Duration Track
––––––––––––––––––––––––––––––––––––––––
DR12 0.00 dB -15.17 dB 7:44 01-Smoke On The Water (1987/Live In Oslo, Norway)
DR11 -2.00 dB -14.86 dB 3:30 02-Hush (Live Version)
DR10 -3.17 dB -16.30 dB 4:00 03-Woman From Tokyo (Live (1987 / Irvine Meadows, CA)
DR11 -2.80 dB -15.16 dB 7:01 04-Knocking At Your Back Door (Album Version)
DR12 0.00 dB -13.61 dB 4:51 05-Call Of The Wild
DR9 -3.67 dB -13.85 dB 5:27 06-Perfect Strangers (Album Version)
DR13 -0.23 dB -16.30 dB 5:07 07-Bad Attitude
DR12 -0.21 dB -14.52 dB 3:58 08-Nobody's Home
DR10 -1.89 dB -13.72 dB 7:16 09-Strange Kind Of Woman (Live)
DR12 -1.20 dB -15.78 dB 4:35 10-The Unwritten Law
DR13 -1.20 dB -14.85 dB 3:25 11-Hard Lovin' Woman
DR12 -2.80 dB -16.44 dB 4:43 12-Dead Or Alive
DR10 -3.72 dB -14.58 dB 4:59 13-Hungry Daze
––––––––––––––––––––––––––––––––––––––––

Number of tracks: 13
Official DR value: DR11

Samplerate: 44100 Hz
Channels: 2
Bits per sample: 16
Bitrate: 926 kbps
Codec: FLAC

Icon: Deep Purple (2012)

All thanks go to koroners

Download Icon: Deep Purple (2012):