Tags
Language
Tags

If - Not Just Another Bunch of Pretty Faces `74 & Tea Break Is Over - Back On Your 'Eads `75 (2005) Repost

Posted By: v3122
If - Not Just Another Bunch of Pretty Faces `74 & Tea Break Is Over - Back On Your 'Eads `75 (2005) Repost

If - Not Just Another Bunch of Pretty Faces `74 & Tea Break Is Over - Back On Your 'Eads `75 (2005)
EAC | Flac(Image) + Cue + Log & MP3 CBR 320Kbps
Sunrise, SR 50523162 | ~ 407 or 177 Mb | Artwork(jpg) -> 18 Mb
Prog Rock, Jazz Rock

If's last studio album isn't as good as their first albums. After many line-up changes, the band slowly changed their musical direction to more straightforward blues-soul-rock.
For sure, you still will find there their sax sound, but generally music became simpler, more guitar based, and in some sense repeated Chicago's evolution. Songs became better structurized, with catchier melodies and openly radio-friendly. Still some arrangements could be pleasant for jazz-rock fans. Some songs are simple blues-rock at the same time.

Still listenable album with some traces of nice earlier music time, but that's all. Mostly for fans.

by snobb, progarchives
If - Not Just Another Bunch of Pretty Faces `74 & Tea Break Is Over - Back On Your 'Eads `75 (2005):

If - Not Just Another Bunch of Pretty Faces `74 & Tea Break Is Over - Back On Your 'Eads `75 (2005) Repost

Tracklist:

Not Just Another Bunch Of Pretty Faces (1974)
01. In The Winter Of Your Life (5:01)
02. Stormy Every Weekday Blues (6:09)
03. Follow That With Your Performing Seals (5:53)
04. Still Alive (4:31)
05. Borrowed Time (4:32)
06. Chiswick High Road Blues (5:19)
07. I Believe In Rock & Roll (4:55)

Tea Break Is Over-Back On Your 'Eads (1975)
08. Merlin The Magic Man (5:07)
09. I Had A Friend (4:31)
10. Tea-Break Over-Back On Your 'Eads (6:07)
11. Ballad Of The Yessirrom Kid (5:20)
12. Raw Sewage (5:46)
13. Song For Alison (3:57)
14. Don Quixote's Masquerade (7:52)

Musicians:

Cliff Davies - drums, synthesizer and vocals
Gabriel Magno - keyboards
Walt Monaghan - bass guitar and vocals
Dick Morrissey - saxes and flute
Mike Tomich - bass guitar
Geoff Whitehorn - guitars and vocals


Exact Audio Copy V0.99 prebeta 5 from 4. May 2009

EAC extraction logfile from 15. September 2011, 9:32

If / Not Just Another Bunch Of Pretty Faces_Tea Break Over

Used drive : TEAC CD-W552E Adapter: 1 ID: 0

Read mode : Secure
Utilize accurate stream : Yes
Defeat audio cache : Yes
Make use of C2 pointers : No

Read offset correction : 6
Overread into Lead-In and Lead-Out : No
Fill up missing offset samples with silence : Yes
Delete leading and trailing silent blocks : No
Null samples used in CRC calculations : Yes
Used interface : Installed external ASPI interface

Used output format : Internal WAV Routines
Sample format : 44.100 Hz; 16 Bit; Stereo


TOC of the extracted CD

Track | Start | Length | Start sector | End sector
––––––––––––––––––––––––––––-
1 | 0:00.00 | 5:01.45 | 0 | 22619
2 | 5:01.45 | 6:09.18 | 22620 | 50312
3 | 11:10.63 | 5:53.12 | 50313 | 76799
4 | 17:04.00 | 4:31.38 | 76800 | 97162
5 | 21:35.38 | 4:32.14 | 97163 | 117576
6 | 26:07.52 | 5:19.24 | 117577 | 141525
7 | 31:27.01 | 4:55.36 | 141526 | 163686
8 | 36:22.37 | 5:07.11 | 163687 | 186722
9 | 41:29.48 | 4:31.23 | 186723 | 207070
10 | 46:00.71 | 6:07.25 | 207071 | 234620
11 | 52:08.21 | 5:20.70 | 234621 | 258690
12 | 57:29.16 | 5:46.56 | 258691 | 284696
13 | 63:15.72 | 3:57.20 | 284697 | 302491
14 | 67:13.17 | 7:52.51 | 302492 | 337942


Range status and errors

Selected range

Filename C:\Program Files\BitComet\Downloads\If - Tea Break Is Over & Not Just Another Bunch of Pretty Faces (1974, 75)\If - Not Just Another Bunch Of Pretty Faces_Tea Break Over.wav

Peak level 99.1 %
Range quality 99.9 %
Test CRC 89D536FA
Copy CRC 89D536FA
Copy OK

No errors occurred


AccurateRip summary

Track 1 accurately ripped (confidence 2) [8138B6AF]
Track 2 accurately ripped (confidence 2) [827A5939]
Track 3 accurately ripped (confidence 2) [E6144647]
Track 4 accurately ripped (confidence 2) [9E71BA0A]
Track 5 accurately ripped (confidence 2) [4ACC3554]
Track 6 accurately ripped (confidence 2) [7D4259A9]
Track 7 accurately ripped (confidence 2) [2B73B230]
Track 8 accurately ripped (confidence 2) [464EBCF0]
Track 9 accurately ripped (confidence 2) [DFB987AA]
Track 10 accurately ripped (confidence 2) [FB57A28B]
Track 11 accurately ripped (confidence 2) [550B43E1]
Track 12 accurately ripped (confidence 2) [6368FC1A]
Track 13 accurately ripped (confidence 2) [DD45BF00]
Track 14 accurately ripped (confidence 2) [1A990D9C]

All tracks accurately ripped

End of status report


[CUETools log; Date: 21.11.2018 19:59:35; Version: 2.1.4]
[AccurateRip ID: 0025df04-019362ad-cc11990e] found.
Track [ CRC | V2 ] Status
01 [8138b6af|eaf6060b] (3+0/3) Accurately ripped
02 [827a5939|dea9bcd9] (3+0/3) Accurately ripped
03 [e6144647|6aed9a2f] (3+0/3) Accurately ripped
04 [9e71ba0a|b0c4f5ef] (3+0/3) Accurately ripped
05 [4acc3554|817f5d99] (3+0/3) Accurately ripped
06 [7d4259a9|3858ab4e] (3+0/3) Accurately ripped
07 [2b73b230|3431dc87] (3+0/3) Accurately ripped
08 [464ebcf0|e276705d] (3+0/3) Accurately ripped
09 [dfb987aa|d5f85ca3] (3+0/3) Accurately ripped
10 [fb57a28b|29b96feb] (3+0/3) Accurately ripped
11 [550b43e1|f0e21dd1] (3+0/3) Accurately ripped
12 [6368fc1a|644656b7] (3+0/3) Accurately ripped
13 [dd45bf00|d80586f7] (3+0/3) Accurately ripped
14 [1a990d9c|918ab399] (3+0/3) Accurately ripped

Track Peak [ CRC32 ] [W/O NULL] [ LOG ]
– 99,1 [89D536FA] [D5BAC236] CRC32
01 98,5 [33C4B51C] [228557B0]
02 99,0 [E91CE5AB] [AD7BCB1E]
03 99,1 [A82D978C] [93F6817A]
04 98,6 [C90AE17D] [C815A415]
05 98,6 [FA4A9D75] [48462370]
06 98,3 [8252559F] [B14BB620]
07 98,5 [33843C43] [426FBB4C]
08 98,5 [F1203F6F] [15B3B918]
09 98,1 [E3333C27] [3D2109E0]
10 98,3 [545B926C] [EC701DB9]
11 98,3 [B18A3041] [8DCCDEBE]
12 98,2 [0BFB66C3] [0EFAAB35]
13 98,3 [C2C48A39] [FC44B3EF]
14 98,4 [00E6C9AD] [60B2E567]


If - Not Just Another Bunch of Pretty Faces `74 & Tea Break Is Over - Back On Your 'Eads `75 (2005) Repost

All thanks go to the original releaser

If or If in my Blog

Download If - Not Just Another Bunch of Pretty Faces `74 & Tea Break Is Over - Back On Your 'Eads `75 (2005):