Tags
Language
Tags

Iggy Pop - Blah-Blah-Blah (1986)

Posted By:
Iggy Pop - Blah-Blah-Blah (1986)

Iggy Pop - Blah-Blah-Blah (1986)
EAC Rip | FLAC (Img) + Cue + Log ~ 331 Mb | MP3 CBR320 ~ 130 Mb
Full Scans | 00:46:13 | RAR 5% Recovery
Alternative Rock, Pop Rock, New Wave | A&M Records #CD5145 / DX 827

Blah-Blah-Blah is the seventh studio album by Iggy Pop. Originally released in October 1986, on the label A&M, it remains his most commercially successful album to date. Blah-Blah-Blah appeared after a four-year hiatus for Pop, with David Bowie serving as his prime collaborator. It would be their final collaboration. A successful tour followed the album's release.

The collection included a cover of Johnny O'Keefe's "Wild One" (here titled "Real Wild Child (Wild One)" and three original songs co-written with ex-Sex Pistols guitarist Steve Jones. The remaining tracks were co-written by Bowie, who also produced the album with David Richards but, unlike his previous work with Pop, The Idiot and Lust for Life (both 1977), did not sing or play any instruments. Bowie biographer David Buckley has reported that Pop "virtually disowned" the record, calling it "a Bowie album in all but name". It has never been specified what tracks on the album, if any, originated during the sessions of Bowie's 1984 album Tonight (that album's co-producer, Hugh Padgham, has recalled that Bowie and Pop collaborated on some songs that Bowie ultimately rejected for inclusion on Tonight).

Described by AllMusic as "the most calculatedly commercial album of Iggy's career", Blah-Blah-Blah was certified gold in Canada. In the U.S. it peaked at No. 75 on Billboard's Top 200 Albums chart. Rolling Stone's contemporary review complained of a "nagging homogeneity to side one" but continued that "even at its most familiar, Blah-Blah-Blah is as spiritually outraged and emotionally direct as commercial pop gets these days".

"Real Wild Child" reached No. 27 on Billboard's Mainstream Rock charts and became Pop's first Top 10 hit in the UK. The song was featured on the soundtrack for the 1988 film Crocodile Dundee II and the 1990 film Pretty Woman, also both Problem Child films and has been the theme song of the Australian TV music program rage since 1987. Other singles and videos from the album included "Cry for Love", "Isolation" and "Shades". "Cry for Love", described by Rolling Stone as "a ripping fusion of classic Iggy rage, Bowie cabaret and unexpected romantic vulnerability", made No. 19 on Billboard's Hot Dance Music chart and No. 34 on the Mainstream Rock charts.

***************

Iggy Pop - Blah-Blah-Blah (1986)

Iggy Pop - Blah-Blah-Blah (1986)

Track List:

01. Real Wild Child (Wild One) [3:39]
02. Baby, It Can't Fall [4:15]
03. Shades [5:58]
04. Fire Girl [3:34]
05. Isolation [4:36]
06. Cry For Love [4:29]
07. Blah-Blah-Blah [4:33]
08. Hideaway [5:01]
09. Winners & Losers [6:18]
10. Little Miss Emperor [3:51]

Personnel:
Iggy Pop - vocals
Kevin Armstrong - guitar; backing vocals
Erdal Kızılçay - synthesizer; bass guitar; drums; string arrangements; backing vocals
Steve Jones - guitar solo on "Cry for Love"
David Bowie - backing vocals

Exact Audio Copy V1.0 beta 3 from 29. August 2011

EAC extraction logfile from 11. February 2019, 20:09

Iggy Pop / Blah-Blah-Blah

Used drive : PLEXTOR DVDR PX-740A Adapter: 0 ID: 0

Read mode : Secure
Utilize accurate stream : Yes
Defeat audio cache : Yes
Make use of C2 pointers : No

Read offset correction : 618
Overread into Lead-In and Lead-Out : No
Fill up missing offset samples with silence : Yes
Delete leading and trailing silent blocks : No
Null samples used in CRC calculations : Yes
Used interface : Native Win32 interface for Win NT & 2000

Used output format : Internal WAV Routines
Sample format : 44.100 Hz; 16 Bit; Stereo


TOC of the extracted CD

Track | Start | Length | Start sector | End sector
––––––––––––––––––––––––––––-
1 | 0:00.33 | 3:38.45 | 33 | 16427
2 | 3:39.03 | 4:14.52 | 16428 | 35529
3 | 7:53.55 | 5:57.48 | 35530 | 62352
4 | 13:51.28 | 3:33.62 | 62353 | 78389
5 | 17:25.15 | 4:36.33 | 78390 | 99122
6 | 22:01.48 | 4:28.40 | 99123 | 119262
7 | 26:30.13 | 4:32.70 | 119263 | 139732
8 | 31:03.08 | 5:01.15 | 139733 | 162322
9 | 36:04.23 | 6:18.10 | 162323 | 190682
10 | 42:22.33 | 3:50.72 | 190683 | 208004


Range status and errors

Selected range

Filename C:\MUSIC\CD Rips_J\Iggy Pop\Iggy Pop - Blah-Blah-Blah.wav

Peak level 98.0 %
Extraction speed 8.2 X
Range quality 100.0 %
Test CRC CEB4F9A8
Copy CRC CEB4F9A8
Copy OK

No errors occurred


AccurateRip summary

Track 1 accurately ripped (confidence 4) [9BEFC87C] (AR v2)
Track 2 accurately ripped (confidence 4) [6A9D152C] (AR v2)
Track 3 accurately ripped (confidence 4) [5B63D36E] (AR v2)
Track 4 accurately ripped (confidence 4) [9F2292D3] (AR v2)
Track 5 accurately ripped (confidence 4) [A9187D21] (AR v2)
Track 6 accurately ripped (confidence 4) [8710CEFC] (AR v2)
Track 7 accurately ripped (confidence 4) [21AA3743] (AR v2)
Track 8 accurately ripped (confidence 4) [89325AD5] (AR v2)
Track 9 accurately ripped (confidence 4) [F3B2EBFD] (AR v2)
Track 10 accurately ripped (confidence 4) [29CC1A9E] (AR v2)

All tracks accurately ripped

End of status report

==== Log checksum F70C1821065A6030EB5EC2764CB7C9E8F51C3B2AF261B23E09B472EFE2A5327C ====

[CUETools log; Date: 15.02.2019 2:41:33; Version: 2.1.6]
Pregap length 00:00:33.
[CTDB TOCID: N0gFDrIzDvAbPiSQSzdU93Lx6Ew-] found.
Track | CTDB Status
1 | (4/4) Accurately ripped
2 | (4/4) Accurately ripped
3 | (4/4) Accurately ripped
4 | (4/4) Accurately ripped
5 | (4/4) Accurately ripped
6 | (4/4) Accurately ripped
7 | (4/4) Accurately ripped
8 | (4/4) Accurately ripped
9 | (4/4) Accurately ripped
10 | (4/4) Accurately ripped
[AccurateRip ID: 0010f738-0089160c-7d0ad50a] found.
Track [ CRC | V2 ] Status
01 [718e85a9|9befc87c] (2+4/6) Accurately ripped
02 [af6cc18e|6a9d152c] (2+4/6) Accurately ripped
03 [1ea49851|5b63d36e] (2+4/6) Accurately ripped
04 [dfc9f079|9f2292d3] (2+4/6) Accurately ripped
05 [4feb47d3|a9187d21] (2+4/6) Accurately ripped
06 [da5a0138|8710cefc] (2+4/6) Accurately ripped
07 [92660b0b|21aa3743] (2+4/6) Accurately ripped
08 [43351860|89325ad5] (2+4/6) Accurately ripped
09 [604c465c|f3b2ebfd] (2+4/6) Accurately ripped
10 [ecbaf9fa|29cc1a9e] (2+4/6) Accurately ripped

Track Peak [ CRC32 ] [W/O NULL] [ LOG ]
– 98,0 [CEB4F9A8] [723499E5] CRC32
01 98,0 [651C2384] [F0CBAD13]
02 93,5 [8321755A] [73B46500]
03 80,5 [FD93120A] [92CC3DFC]
04 77,3 [3E764DB5] [89A3DA89]
05 91,3 [2526324D] [BDD887F8]
06 74,1 [928A8C3E] [B2A076FB]
07 62,7 [FBD80F0E] [DC5757FD]
08 88,4 [8FAAE04A] [329DF7FA]
09 97,4 [E901FECE] [A12044F4]
10 68,5 [CAFC3A27] [D88EC042]

Iggy Pop - Blah-Blah-Blah (1986)


All thanks go to Juergen

>>> My Blog <<<

DOWNLOAD: