Subcategories

Iggy Pop - Brick By Brick (1990) [2014, Universal Music Japan, UICY-76651]

Posted By: v3122
Iggy Pop - Brick By Brick (1990) [2014, Universal Music Japan, UICY-76651]

Iggy Pop - Brick By Brick (1990)
EAC | Flac(Image) + Cue + Log & M4A(Tracks) & MP3 CBR 320Kbps
Universal Music Japan, UICY-76651 | ~ 427 or 428 or 136 Mb | Scans(png) -> 129 Mb
Rock / Glam / Proto-Punk

While Don Was is best known for his work with mutant funkateers Was (Not Was), he was also a Motor City boy with fond memories of the Stooges' glory days, and when he was hired to produce an album for Iggy Pop, Was said, "The guy is incredibly intelligent, writes great lyrics, is a great singer, and I just wanted to get that across." And he did: Brick by Brick refined Iggy's gifts without watering them down, adding a polish that focused his talents rather than blurring them. Working with a mixture of L.A. session heavyweights (Waddy Wachtel, David Lindley) and rock stars paying their respects (Slash and Duff McKagan from Guns n' Roses, Kate Pierson from the B-52's), Brick by Brick leans to tough, guitar-based hard rock, leavened with a few more pop-oriented tunes that still speak of a hard-nosed lyrical approach. But the triumph here is Iggy's; he's rarely sung better on record, finding a middle ground between precision and abandon that honors both and surrenders to neither, and as a lyricist he reached a new level of maturity that proved he could expand his boundaries without loosing touch with his roots. On Brick by Brick, Iggy's dominant theme is the cultural and moral decay of modern America, and finding the strength to rise above it and reach a place in the world. That might sound a bit grand for Iggy, but as a man who sent himself to Hell and back (and learned a few things in the process), he expresses his ideas with plenty of piss, vinegar, and hard-bitten wit. Smart, tough, and impressive on all counts, Brick by Brick was Iggy Pop's strongest work since Lust for Life, and marked a new high point in his career as a songwriter.

by Mark Deming, AMG
Iggy Pop - Brick By Brick (1990):

Iggy Pop - Brick By Brick (1990) [2014, Universal Music Japan, UICY-76651]

Tracklist:

01. Home
02. Main Street Eyes
03. I Won't Crap Out
04. Candy
05. Butt Town
06. The Undefeated
07. Moonlight Lady
08. Something Wild
09. Neon Forest
10. Starry Night
11. Pussy Power
12. My Baby Wants To Rock & Roll
13. Brick By Brick
14. Livin' On The Edge Of The Night

Exact Audio Copy V1.0 beta 3 from 29. August 2011

EAC extraction logfile from 16. November 2014, 10:29

Iggy Pop / Brick By Brick SHM-CD

Used drive : PLEXTOR BD-R PX-B950SA Adapter: 6 ID: 0

Read mode : Secure
Utilize accurate stream : Yes
Defeat audio cache : Yes
Make use of C2 pointers : No

Read offset correction : 6
Overread into Lead-In and Lead-Out : No
Fill up missing offset samples with silence : Yes
Delete leading and trailing silent blocks : No
Null samples used in CRC calculations : Yes
Used interface : Native Win32 interface for Win NT & 2000

Used output format : Internal WAV Routines
Sample format : 44.100 Hz; 16 Bit; Stereo


TOC of the extracted CD

Track | Start | Length | Start sector | End sector
––––––––––––––––––––––––––––-
1 | 0:00.00 | 4:01.12 | 0 | 18086
2 | 4:01.12 | 3:41.38 | 18087 | 34699
3 | 7:42.50 | 4:02.57 | 34700 | 52906
4 | 11:45.32 | 4:14.03 | 52907 | 71959
5 | 15:59.35 | 3:34.10 | 71960 | 88019
6 | 19:33.45 | 2:47.12 | 88020 | 100556
7 | 22:20.57 | 3:30.48 | 100557 | 116354
8 | 25:51.30 | 4:01.37 | 116355 | 134466
9 | 29:52.67 | 7:05.40 | 134467 | 166381
10 | 36:58.32 | 4:01.60 | 166382 | 184516
11 | 41:00.17 | 5:05.03 | 184517 | 207394
12 | 46:05.20 | 4:46.10 | 207395 | 228854
13 | 50:51.30 | 3:29.32 | 228855 | 244561
14 | 54:20.62 | 3:10.15 | 244562 | 258826


Range status and errors

Selected range

Filename C:\Users\Meijin\Desktop\ALLexxess\Iggy Pop\1990 Brick By Brick (Mini LP SHM-CD Universal Japan 2014)\Iggy Pop - Brick By Brick SHM-CD.wav

Peak level 100.0 %
Extraction speed 7.4 X
Range quality 100.0 %
Test CRC DA12D05F
Copy CRC DA12D05F
Copy OK

No errors occurred


AccurateRip summary

Track 1 cannot be verified as accurate (confidence 1) [1264640C], AccurateRip returned [50C5315E] (AR v2)
Track 2 cannot be verified as accurate (confidence 1) [D263D24E], AccurateRip returned [E0CE589A] (AR v2)
Track 3 cannot be verified as accurate (confidence 1) [99814361], AccurateRip returned [773A5222] (AR v2)
Track 4 cannot be verified as accurate (confidence 1) [22534C89], AccurateRip returned [B3503741] (AR v2)
Track 5 cannot be verified as accurate (confidence 1) [C2F50EAB], AccurateRip returned [288E1E1A] (AR v2)
Track 6 cannot be verified as accurate (confidence 1) [8EEC2B72], AccurateRip returned [29EFC331] (AR v2)
Track 7 cannot be verified as accurate (confidence 1) [4ECA854C], AccurateRip returned [AE7FD035] (AR v2)
Track 8 cannot be verified as accurate (confidence 1) [DA82C648], AccurateRip returned [94E9C1BC] (AR v2)
Track 9 cannot be verified as accurate (confidence 1) [C0293780], AccurateRip returned [B28C16F6] (AR v2)
Track 10 cannot be verified as accurate (confidence 1) [8376FD65], AccurateRip returned [2FDE6AC0] (AR v2)
Track 11 cannot be verified as accurate (confidence 1) [16A7F33B], AccurateRip returned [35B333BB] (AR v2)
Track 12 cannot be verified as accurate (confidence 1) [3E2CC1E9], AccurateRip returned [BBA3B62D] (AR v2)
Track 13 cannot be verified as accurate (confidence 1) [FF498894], AccurateRip returned [0C3D7B22] (AR v2)
Track 14 cannot be verified as accurate (confidence 1) [A34F3C68], AccurateRip returned [9D6640C7] (AR v2)

No tracks could be verified as accurate
You may have a different pressing from the one(s) in the database

End of status report

foobar2000 1.2.9 / Dynamic Range Meter 1.1.1
log date: 2014-12-01 09:42:02

––––––––––––––––––––––––––––––––––––––––
Analyzed: Iggy Pop / Brick By Brick SHM-CD
––––––––––––––––––––––––––––––––––––––––

DR Peak RMS Duration Track
––––––––––––––––––––––––––––––––––––––––
DR9 0.00 dB -10.66 dB 4:01 01-Home
DR10 0.00 dB -11.69 dB 3:42 02-Main Street Eyes
DR8 0.00 dB -10.89 dB 4:03 03-I Won't Crap Out
DR8 0.00 dB -9.97 dB 4:14 04-Candy
DR8 0.00 dB -9.95 dB 3:34 05-Butt Town
DR9 0.00 dB -10.26 dB 2:47 06-Pussy Power
DR12 0.00 dB -14.42 dB 3:31 07-Moonlight Lady
DR9 0.00 dB -11.15 dB 4:01 08-Something Wild
DR8 0.00 dB -10.05 dB 7:06 09-Neon Forest
DR10 0.00 dB -12.02 dB 4:02 10-Starry Night
DR8 0.00 dB -9.85 dB 5:05 11-The Undefeated
DR8 0.00 dB -9.67 dB 4:46 12-My Baby Wants To Rock & Roll
DR12 0.00 dB -15.70 dB 3:29 13-Brick By Brick
DR9 0.00 dB -11.57 dB 3:10 14-Livin' On The Edge Of The Night
––––––––––––––––––––––––––––––––––––––––

Number of tracks: 14
Official DR value: DR9

Samplerate: 44100 Hz
Channels: 2
Bits per sample: 16
Bitrate: 1005 kbps
Codec: FLAC

[CUETools log; Date: 01.12.2014 9:42:34; Version: 2.1.4]
[CTDB TOCID: fvY4qNZ.WseA8J7LMGw_mSdMnfo-] found.
Track | CTDB Status
1 | (0/1) No match
2 | (0/1) No match
3 | (0/1) No match
4 | (0/1) No match
5 | (0/1) No match
6 | (0/1) No match
7 | (0/1) No match
8 | (0/1) No match
9 | (0/1) No match
10 | (0/1) No match
11 | (0/1) No match
12 | (0/1) No match
13 | (0/1) No match
14 | (0/1) No match
[AccurateRip ID: 001d1b87-01398b30-b40d7b0e] found.
Track [ CRC | V2 ] Status
01 [5629b0ab|1264640c] (0+0/1) No match
02 [3cd220cc|d263d24e] (0+0/1) No match
03 [ec4710a2|99814361] (0+0/1) No match
04 [72ea668d|22534c89] (0+0/1) No match
05 [62a70f0a|c2f50eab] (0+0/1) No match
06 [eb923e4b|8eec2b72] (0+0/1) No match
07 [aaf422fd|4eca854c] (0+0/1) No match
08 [af2e1ac4|da82c648] (0+0/1) No match
09 [5e83bddc|c0293780] (0+0/1) No match
10 [c290db67|8376fd65] (0+0/1) No match
11 [937b380b|16a7f33b] (0+0/1) No match
12 [9dd5e942|3e2cc1e9] (0+0/1) No match
13 [385aecc5|ff498894] (0+0/1) No match
14 [fb02a4ce|a34f3c68] (0+0/1) No match

Track Peak [ CRC32 ] [W/O NULL] [ LOG ]
– 100,0 [DA12D05F] [D86724E8] CRC32
01 100,0 [9B4D3494] [5F796E48]
02 100,0 [C48F5ACE] [DF8DD121]
03 100,0 [B2C59101] [A9EED9CF]
04 100,0 [0FAA27A8] [ADF2B96D]
05 100,0 [D34A5AC2] [D3D74F2E]
06 100,0 [1763BB4E] [3FC8926D]
07 100,0 [CC68B15B] [F6A0B415]
08 100,0 [0D4053D8] [7CCA99E8]
09 100,0 [A3597710] [983774AF]
10 100,0 [561AB607] [A066E896]
11 100,0 [039F3DB2] [9E8A6AF8]
12 100,0 [D7383379] [B2513C3E]
13 100,0 [B31C0E7B] [CBA2D3B3]
14 100,0 [B056DFBF] [3F36F0AC]

Iggy Pop - Brick By Brick (1990) [2014, Universal Music Japan, UICY-76651]

All thanks go to ALLexxess