Tags
Language
Tags

Iiro Rantala - Piano Concerto (2006) (Repost)

Posted By: tirexiss
Iiro Rantala - Piano Concerto (2006) (Repost)

Iiro Rantala - Piano Concerto (2006)

EAC | FLAC (image+.cue, log) | Covers Included | 56:58 | 255 MB
Genre: Classical | Label: Ondine | Catalog: 1071

Rantala’s roots are in jazz. He began his piano studies at the Käpylä Music Institute and continued his studies at the Oulunkylä Pop/Jazz Institute and the Jazz Department of the Sibelius Academy. In 1991 he turned his attention to classical piano at the Manhattan School of Music for two years. Rantala is the founder and pianist of Trio Töykeät, Finland's most prominent jazz band. They have performed in more than forty different countries over five continents. Jazz and contemporary rub shoulders in his music, blending, melting and reasserting their identities.
Listening to the 38 minute Piano Concerto Rantala’s open-minded eclecticism is to the fore. It’s rather like listening to Constant Lambert supercharged with the visceral-feral energy in Percy Grainger’s The Warriors. But this is only part of the story. The Concerto links hands with many twentieth century exemplars including Bernstein, Gershwin’s Rhapsody in Blue (which Rantala has performed in Finland), Rachmaninov (a little) and Prokofiev (much more). Towards the end of the first movement we even hear things that remind us of Malcolm Arnold whooping it up in his Concerto for Phyllis and Cyril. It’s a veritable collage of a work drawing on popular middle-of-the-road culture with nary a wince or a blush. It’s clearly good fun and if I am left wondering how much of this is due to Rantala and how much to Kuusisto who did the orchestration perhaps the division of creativity doesn’t matter all that much. In the piano solo Astorale as well as in Tangonator (violin and piano) I thought of the sharp and edgy style of those famous Grappelli and Previn collections of the early 1970s - all jazz, Mayerl and Palm Court with the odd surprise thrown in such as the cackling violin in 2:40 in Tangonator. Final Fantasy is a concert-closer played at Trio Töykeät events. It flies along at full tilt with the RPMs close to the engine’s limit and then pauses for a moment’s reflection and a lovely sentimental aside. Oddly enough it had me thinking of the first movement of Walton’s Sinfonia Concertante for piano and orchestra. A pulse-thrilling work with a feel-good kick.
If you go for fanciful, even dissolute adventures in the shadow-land between jazz, popular and classical you will find this irresistible …. and fun. – Rob Barnett

Iiro Rantala - Piano Concerto (2006) (Repost)

Track List:

Concerto for Piano and Concerto in G♯ΔA♭ (G sharp major and A flat)
1. I
2. II
3. III

4. Astorale for Piano Solo
5. Tangonator for Violin and Piano
6. Final Fantasy for Piano and Orchestra

Performers:
Iiro Rantala, piano
Tapiola Sinfonietta
Jaakko Kuusisto, violin & conductor

Exact Audio Copy V0.99 prebeta 4 from 23. January 2008

EAC extraction logfile from 16. August 2009, 0:06

Iiro Rantala (piano), Jaakko Kuusisto (violin) / Rantala, Iiro - Piano Concerto, Astorale, Tangonator, Final Fantasy

Used drive : QSI CDRW/DVD … Adapter: 1 ID: 0

Read mode : Secure
Utilize accurate stream : Yes
Defeat audio cache : Yes
Make use of C2 pointers : No

Read offset correction : 6
Overread into Lead-In and Lead-Out : No
Fill up missing offset samples with silence : Yes
Delete leading and trailing silent blocks : No
Null samples used in CRC calculations : Yes
Used interface : Installed external ASPI interface

Used output format : User Defined Encoder
Selected bitrate : 768 kBit/s
Quality : High
Add ID3 tag : No
Command line compressor : C:\Program Files\Exact Audio Copy\Flac\flac.exe
Additional command line options : -8 -V %s -o %d


TOC of the extracted CD

Track | Start | Length | Start sector | End sector
––––––––––––––––––––––––––––-
1 | 0:00.00 | 16:15.05 | 0 | 73129
2 | 16:15.05 | 6:14.22 | 73130 | 101201
3 | 22:29.27 | 15:56.16 | 101202 | 172917
4 | 38:25.43 | 8:04.06 | 172918 | 209223
5 | 46:29.49 | 5:05.44 | 209224 | 232142
6 | 51:35.18 | 5:24.68 | 232143 | 256510


Range status and errors

Selected range

Filename C:\Documents and Settings\Desktop\Iiro Rantala\Iiro Rantala (piano), Jaakko Kuusisto (violin) - Rantala, Iiro - Piano Concerto, Astorale, Tangonator, Final Fantasy.wav

Peak level 97.7 %
Range quality 100.0 %
Test CRC 3FE7B8A7
Copy CRC 3FE7B8A7
Copy OK

No errors occurred


AccurateRip summary

Track 1 accurately ripped (confidence 1) [6F523FAA]
Track 2 accurately ripped (confidence 1) [269A485A]
Track 3 accurately ripped (confidence 1) [8E431DBF]
Track 4 accurately ripped (confidence 1) [74B05CFD]
Track 5 accurately ripped (confidence 1) [B6B8B534]
Track 6 accurately ripped (confidence 1) [C82A7716]

All tracks accurately ripped

End of status report

Thanks to the Original ripper (unknown)!

Download: