Tags
Language
Tags

Il Divo - Ancora (2005)

Posted By: popsakov
Il Divo - Ancora (2005)

Il Divo - Ancora (2005)
EAC Rip | FLAC (Img) + Cue + Log ~ 308 Mb | MP3 CBR320 ~ 129 Mb
Scans Included (JPG, 300 dpi) | RAR 5% Recovery
Classical Crossover, Vocal Pop | Sony BMG Music / Syco Music #82876738712

Unbearably handsome opera-pop quartet Il Divo deliver another amorous collection of European housecleaning ballads with Ancora, an album so riddled with Cupid's arrows that it requires its own storage unit. Once again, David Miller, Sébastien Izambard, Urs Buhler, and Carlos Marin bring the love in Spanish, English, and Italian, emoting over classical and opera standards, as well as some notable contemporary compositions. They fawn over Celine Dion – who can barely contain her own affections – on "Isabel," and make Mariah Carey's "Hero" sound like the rolling of credits over a Jerry Bruckheimer action/tragedy blockbuster, all the while maintaining the perfect pitch and impeccable showmanship that are their stock-in-trade. Fans who flocked to Il Divo's self-titled debut and 2005 Christmas Collection need no reassurances that their boys are in top form, as a recent appearance on Oprah brought the quartet into the homes of millions of potential converts, but in this age of manufactured goods over artisan rusticity, it's hard not to look at Ancora as the classical crossover equivalent of a bistro-style TV dinner.
~ James Christopher Monger, All Music
Il Divo - Ancora (2005)


***************

Il Divo - Ancora (2005)

Track List:

01. Heroe [4:18]
02. Isabel [4:16]
03. I Believe In You (Je Crois En Toi) [4:01]
04. Unchained Melody (Senza Catene) [3:51]
05. Si T. Me Amas [4:10]
06. Ave Maria [4:53]
07. Hasta Mi Final [3:38]
08. All By Myself (Solo Otra Vez) [3:54]
09. En Aranjuez Con Tu Amor [3:53]
10. Pour Que Tu M'Aimes Encore [3:56]
11. O Holy Night [4:00]

Exact Audio Copy V1.0 beta 3 from 29. August 2011

EAC extraction logfile from 23. March 2017, 18:25

Il Divo / Ancora

Used drive : TSSTcorpCDDVDW SH-216DB Adapter: 0 ID: 0

Read mode : Secure
Utilize accurate stream : Yes
Defeat audio cache : Yes
Make use of C2 pointers : No

Read offset correction : 6
Overread into Lead-In and Lead-Out : No
Fill up missing offset samples with silence : Yes
Delete leading and trailing silent blocks : No
Null samples used in CRC calculations : Yes
Used interface : Native Win32 interface for Win NT & 2000

Used output format : User Defined Encoder
Selected bitrate : 1024 kBit/s
Quality : High
Add ID3 tag : No
Command line compressor : C:\Program Files (x86)\Exact Audio Copy\Flac\flac.exe
Additional command line options : -V -8 -T "Date=%year%" -T "Genre=%genre%" %source%


TOC of the extracted CD

Track | Start | Length | Start sector | End sector
––––––––––––––––––––––––––––-
1 | 0:00.00 | 4:17.47 | 0 | 19321
2 | 4:17.47 | 4:15.73 | 19322 | 38519
3 | 8:33.45 | 4:00.72 | 38520 | 56591
4 | 12:34.42 | 3:50.65 | 56592 | 73906
5 | 16:25.32 | 4:09.53 | 73907 | 92634
6 | 20:35.10 | 4:52.42 | 92635 | 114576
7 | 25:27.52 | 3:37.43 | 114577 | 130894
8 | 29:05.20 | 3:54.07 | 130895 | 148451
9 | 32:59.27 | 3:52.38 | 148452 | 165889
10 | 36:51.65 | 3:56.15 | 165890 | 183604
11 | 40:48.05 | 3:59.55 | 183605 | 201584


Range status and errors

Selected range

Filename L:\Private\My Audio Ripps\ CD - RIPS\Il Divo - Ancora\Il Divo - Ancora.wav

Peak level 100.0 %
Extraction speed 2.9 X
Range quality 100.0 %
Test CRC 85D7ABE2
Copy CRC 85D7ABE2
Copy OK

No errors occurred


AccurateRip summary

Track 1 accurately ripped (confidence 2) [3CACAA1F] (AR v2)
Track 2 accurately ripped (confidence 2) [913BCE10] (AR v2)
Track 3 accurately ripped (confidence 2) [223BE7CA] (AR v2)
Track 4 accurately ripped (confidence 2) [420B282F] (AR v2)
Track 5 accurately ripped (confidence 2) [75B3D32F] (AR v2)
Track 6 accurately ripped (confidence 2) [7C29E1AB] (AR v2)
Track 7 accurately ripped (confidence 2) [1EAC0AA5] (AR v2)
Track 8 accurately ripped (confidence 2) [D78DA58E] (AR v2)
Track 9 accurately ripped (confidence 2) [DD084C30] (AR v2)
Track 10 accurately ripped (confidence 2) [CD44EDD3] (AR v2)
Track 11 accurately ripped (confidence 2) [3BD857D0] (AR v2)

All tracks accurately ripped

End of status report

==== Log checksum EABBA495CAFC3E3456350867199D4978ACE41809C3560868BAD8E372E7BCE557 ====

foobar2000 1.2.6 / Dynamic Range Meter 1.1.1
log date: 2017-05-10 01:18:22

––––––––––––––––––––––––––––––––––––––––
Analyzed: Il Divo / Ancora
––––––––––––––––––––––––––––––––––––––––

DR Peak RMS Duration Track
––––––––––––––––––––––––––––––––––––––––
DR7 0.00 dB -10.54 dB 4:18 01-Heroe
DR6 -0.10 dB -9.59 dB 4:16 02-Isabel
DR5 -0.10 dB -8.91 dB 4:01 03-I Believe In You (Je Crois En Toi)
DR6 -0.10 dB -8.57 dB 3:51 04-Unchained Melody (Senza Catene)
DR6 -0.20 dB -9.12 dB 4:10 05-Si T. Me Amas
DR6 0.00 dB -10.30 dB 4:53 06-Ave Maria
DR7 -0.10 dB -11.66 dB 3:38 07-Hasta Mi Final
DR7 -0.10 dB -10.52 dB 3:54 08-All By Myself (Solo Otra Vez)
DR7 -0.10 dB -10.28 dB 3:53 09-En Aranjuez Con Tu Amor
DR6 -0.10 dB -9.01 dB 3:56 10-Pour Que Tu M'Aimes Encore
DR7 -0.10 dB -11.18 dB 4:00 11-O Holy Night
––––––––––––––––––––––––––––––––––––––––

Number of tracks: 11
Official DR value: DR6

Samplerate: 44100 Hz
Channels: 2
Bits per sample: 16
Bitrate: 851 kbps
Codec: FLAC
================================================================================

[CUETools log; Date: 10.05.2017 1:23:25; Version: 2.1.5]
[CTDB TOCID: _3JMiuOm7uKCm33WZgkgW8_DkRo-] found.
Track | CTDB Status
1 | (345/381) Accurately ripped, or (31/381) differs in 4042 samples @00:00:30-00:00:41,00:00:46-00:00:54,00:15:55-00:15:56,01:27:51-01:27:53,04:13:67-04:15:48,04:15:54-04:16:15,04:16:22,04:16:27-04:16:31,04:16:40,04:16:46-04:16:55
2 | (347/381) Accurately ripped, or (31/381) differs in 517 samples @00:00:17-00:00:18,04:11:63-04:13:14,04:13:20-04:13:45,04:13:52-04:13:65,04:13:73-04:14:08,04:14:15-04:14:30
3 | (349/381) Accurately ripped, or (31/381) differs in 4308 samples @00:00:18-00:00:25,00:16:09-00:16:10,03:57:55-03:58:74,03:59:04-03:59:20,03:59:26-03:59:45,03:59:50-03:59:52,03:59:58,03:59:68-04:00:07
4 | (345/381) Accurately ripped, or (31/381) differs in 947 samples @00:00:16-00:00:31,03:45:69,03:46:04-03:47:20,03:47:25,03:47:38-03:47:52,03:47:62,03:47:69-03:48:02,03:48:08-03:48:10,03:48:16-03:48:23
5 | (348/381) Accurately ripped, or (31/381) differs in 320 samples @00:00:18-00:00:19,04:05:71-04:07:60
6 | (348/381) Accurately ripped, or (31/381) differs in 7118 samples @00:00:16-00:00:29,00:02:16-00:02:18,00:40:67-00:40:69,01:50:22-01:50:24,02:22:22-02:22:24,04:49:61-04:50:13,04:50:19,04:50:28-04:50:37,04:50:43-04:50:54,04:50:59-04:50:62,04:50:67-04:50:73,04:51:03,04:51:10-04:51:20,04:51:25-04:51:36,04:51:41-04:51:53
7 | (345/381) Accurately ripped, or (31/381) differs in 1424 samples @00:00:18-00:00:19,03:34:12-03:35:73
8 | (347/381) Accurately ripped, or (31/381) differs in 1217 samples @00:00:17-00:00:38,03:50:46-03:51:63,03:51:69-03:52:08,03:52:16,03:52:26-03:52:31, or (2/381) differs in 12 samples @02:30:66
9 | (345/381) Accurately ripped, or (31/381) differs in 1305 samples @03:47:62-03:50:33, or (2/381) differs in 36 samples @00:49:18,03:46:27,03:47:34
10 | (343/381) Accurately ripped, or (31/381) differs in 1957 samples @00:00:16-00:00:17,01:18:31-01:18:32,03:52:17-03:52:44,03:52:49-03:52:57,03:52:62-03:52:68,03:53:03-03:53:11,03:53:17-03:53:21,03:53:27-03:53:33,03:53:40,03:53:46,03:53:54-03:53:57,03:53:63-03:53:71, or (2/381) differs in 36 samples @00:24:02,00:36:56,03:11:46, or (2/381) differs in 51 samples @02:41:35
11 | (345/381) Accurately ripped, or (31/381) differs in 3592 samples @00:00:17-00:00:20,00:00:48-00:00:50,00:04:72-00:04:73,03:57:48-03:59:37, or (2/381) differs in 37 samples @00:26:20-00:26:21,01:02:04,01:39:18,02:24:41
[AccurateRip ID: 0012b4fc-00a19258-9e0a7f0b] found.
Track [ CRC | V2 ] Status
01 [17334454|3cacaa1f] (009+002/307) Accurately ripped
02 [2e79d523|913bce10] (009+002/311) Accurately ripped
03 [1a6bab63|223be7ca] (009+002/309) Accurately ripped
04 [c6b97478|420b282f] (009+002/308) Accurately ripped
05 [5589bd8e|75b3d32f] (009+002/306) Accurately ripped
06 [812f02ed|7c29e1ab] (009+002/308) Accurately ripped
07 [3416f2d7|1eac0aa5] (009+002/309) Accurately ripped
08 [308f624c|d78da58e] (009+002/310) Accurately ripped
09 [055c7142|dd084c30] (009+002/307) Accurately ripped
10 [e6efac1d|cd44edd3] (009+002/309) Accurately ripped
11 [4f779404|3bd857d0] (009+002/303) Accurately ripped
Offsetted by -12:
01 [83049f28] (002/307) Accurately ripped
02 [1df5a60b] (002/311) Accurately ripped
03 [4c5a7327] (002/309) Accurately ripped
04 [5c806c80] (002/308) Accurately ripped
05 [57d5deba] (002/306) Accurately ripped
06 [dfcba231] (002/308) Accurately ripped
07 [7b2ac857] (002/309) Accurately ripped
08 [9c47912c] (002/310) Accurately ripped
09 [27ac1afa] (002/307) Accurately ripped
10 [c95cacd9] (002/309) Accurately ripped
11 [549dde80] (002/303) Accurately ripped
Offsetted by 141:
01 [24575919] (002/307) Accurately ripped
02 [708afe7d] (002/311) Accurately ripped
03 [0fb60024] (002/309) Accurately ripped
04 [e6d7921a] (002/308) Accurately ripped
05 [ba8b37c9] (002/306) Accurately ripped
06 [a97eb38e] (002/308) Accurately ripped
07 [b0ede637] (002/309) Accurately ripped
08 [3edb3b84] (002/310) Accurately ripped
09 [72346710] (002/307) Accurately ripped
10 [826ee37c] (002/309) Accurately ripped
11 [52f5a8d3] (002/303) Accurately ripped
Offsetted by 522:
01 [c520554e] (002/307) Accurately ripped
02 [fcefd5b7] (002/311) Accurately ripped
03 [1e58b995] (002/309) Accurately ripped
04 [536a4f1c] (002/308) Accurately ripped
05 [f19a1a94] (002/306) Accurately ripped
06 [6d91f2df] (002/308) Accurately ripped
07 [a0382b97] (002/309) Accurately ripped
08 [e2c36b3c] (002/310) Accurately ripped
09 [30d31a7e] (002/307) Accurately ripped
10 [6d6a0c2b] (002/309) Accurately ripped
11 [ef75ebf2] (002/303) Accurately ripped
Offsetted by 646:
01 [6b02556a] (022/307) Accurately ripped
02 [a79b11af] (023/311) Accurately ripped
03 [6fb55401] (023/309) Accurately ripped
04 [47b7a174] (021/308) Accurately ripped
05 [84876e78] (021/306) Accurately ripped
06 [9bea2fcb] (022/308) Accurately ripped
07 [6c6b3817] (022/309) Accurately ripped
08 [89a986dc] (023/310) Accurately ripped
09 [239beb66] (021/307) Accurately ripped
10 [9f03af3f] (023/309) Accurately ripped
11 [0f94ea46] (023/303) Accurately ripped
Offsetted by 1214:
01 [7ba234e2] (002/307) Accurately ripped
02 [b5611c1f] (002/311) Accurately ripped
03 [898f0f19] (002/309) Accurately ripped
04 [96431aa4] (002/308) Accurately ripped
05 [c273f700] (002/306) Accurately ripped
06 [1d9f67e3] (002/308) Accurately ripped
07 [f2c06917] (002/309) Accurately ripped
08 [9ef0dc1c] (002/310) Accurately ripped
09 [20e134b6] (002/307) Accurately ripped
10 [16dc3727] (002/309) Accurately ripped
11 [712b24ae] (002/303) Accurately ripped
Offsetted by 1280:
01 [2aa2c154] (094/307) Accurately ripped
02 [10381f23] (094/311) Accurately ripped
03 [f6edc463] (094/309) Accurately ripped
04 [5e7cc678] (094/308) Accurately ripped
05 [b5d1408e] (092/306) Accurately ripped
06 [1541fbed] (093/308) Accurately ripped
07 [ebd352d7] (094/309) Accurately ripped
08 [4e7bda4c] (094/310) Accurately ripped
09 [642b0f42] (094/307) Accurately ripped
10 [3984b31d] (094/309) Accurately ripped
11 [d4d88b04] (092/303) Accurately ripped
Offsetted by -146:
01 [36fbc012] (000/307) No match (V2 was not tested)
02 [6586ed7f] (000/311) No match (V2 was not tested)
03 [4f44d489] (000/309) No match (V2 was not tested)
04 [e5039384] (000/308) No match (V2 was not tested)
05 [1c27fbd0] (000/306) No match (V2 was not tested)
06 [004b3f53] (000/308) No match (V2 was not tested)
07 [bf884317] (000/309) No match (V2 was not tested)
08 [4f259c9c] (000/310) No match (V2 was not tested)
09 [fc25acd6] (000/307) No match (V2 was not tested)
10 [ff1ddfb7] (000/309) No match (V2 was not tested)
11 [63741e3e] (000/303) No match (V2 was not tested)
Offsetted by -18:
01 [b8ed4c92] (000/307) No match (V2 was not tested)
02 [15b38e7f] (000/311) No match (V2 was not tested)
03 [e551d709] (000/309) No match (V2 was not tested)
04 [a763e884] (000/308) No match (V2 was not tested)
05 [58fbef50] (000/306) No match (V2 was not tested)
06 [0f19f1d3] (000/308) No match (V2 was not tested)
07 [1eb4b317] (000/309) No match (V2 was not tested)
08 [d223a89c] (000/310) No match (V2 was not tested)
09 [38d3efd6] (000/307) No match (V2 was not tested)
10 [3a932d37] (000/309) No match (V2 was not tested)
11 [d73103be] (000/303) No match (V2 was not tested)
Offsetted by -3:
01 [32279b09] (000/307) No match (V2 was not tested)
02 [aa58c95d] (000/311) No match (V2 was not tested)
03 [66e75d54] (000/309) No match (V2 was not tested)
04 [ec2b327a] (000/308) No match (V2 was not tested)
05 [d61cc5d9] (000/306) No match (V2 was not tested)
06 [18d62abe] (000/308) No match (V2 was not tested)
07 [05dbe837] (000/309) No match (V2 was not tested)
08 [4b7d6e04] (000/310) No match (V2 was not tested)
09 [0df05bb0] (000/307) No match (V2 was not tested)
10 [1f8aec4c] (000/309) No match (V2 was not tested)
11 [90c126a3] (000/303) No match (V2 was not tested)
Offsetted by 5:
01 [ea46b3d1] (000/307) No match (V2 was not tested)
02 [b55b936d] (000/311) No match (V2 was not tested)
03 [f0482d7c] (000/309) No match (V2 was not tested)
04 [885137ca] (000/308) No match (V2 was not tested)
05 [29ea0511] (000/306) No match (V2 was not tested)
06 [d9c315e6] (000/308) No match (V2 was not tested)
07 [2bceaf37] (000/309) No match (V2 was not tested)
08 [03ad4ec4] (000/310) No match (V2 was not tested)
09 [a1bb3fe0] (000/307) No match (V2 was not tested)
10 [33424124] (000/309) No match (V2 was not tested)
11 [37fcf4fb] (000/303) No match (V2 was not tested)
Offsetted by 593:
01 [4734513d] (000/307) No match (V2 was not tested)
02 [dea89705] (002/311) Accurately ripped
03 [6193f0f8] (000/309) No match (V2 was not tested)
04 [dd3bbe42] (000/308) No match (V2 was not tested)
05 [b957aba5] (000/306) No match (V2 was not tested)
06 [bdc899e2] (000/308) No match (V2 was not tested)
07 [9102d1b7] (000/309) No match (V2 was not tested)
08 [656c55e4] (000/310) No match (V2 was not tested)
09 [107bc3a8] (000/307) No match (V2 was not tested)
10 [dc651d28] (000/309) No match (V2 was not tested)
11 [3ba8b33f] (000/303) No match (V2 was not tested)
Offsetted by 598:
01 [1a47c0ba] (000/307) No match (V2 was not tested)
02 [658a554f] (000/311) No match (V2 was not tested)
03 [37707311] (000/309) No match (V2 was not tested)
04 [9ed38194] (000/308) No match (V2 was not tested)
05 [8db7f328] (000/306) No match (V2 was not tested)
06 [165cacdb] (000/308) No match (V2 was not tested)
07 [88ba8e17] (000/309) No match (V2 was not tested)
08 [388a425c] (000/310) No match (V2 was not tested)
09 [acda9246] (000/307) No match (V2 was not tested)
10 [28b7b22f] (000/309) No match (V2 was not tested)
11 [242e1436] (000/303) No match (V2 was not tested)
Offsetted by 656:
01 [11293464] (000/307) No match (V2 was not tested)
02 [b55e8e43] (000/311) No match (V2 was not tested)
03 [1b6e5833] (000/309) No match (V2 was not tested)
04 [cae72818] (000/308) No match (V2 was not tested)
05 [2d47fd7e] (000/306) No match (V2 was not tested)
06 [4d1255bd] (000/308) No match (V2 was not tested)
07 [5bdab0d7] (000/309) No match (V2 was not tested)
08 [2fe55fcc] (000/310) No match (V2 was not tested)
09 [5c5988a2] (000/307) No match (V2 was not tested)
10 [37a8d94d] (000/309) No match (V2 was not tested)
11 [e09fac34] (000/303) No match (V2 was not tested)
Offsetted by 1292:
01 [bed16680] (000/307) No match (V2 was not tested)
02 [20bc4e3b] (000/311) No match (V2 was not tested)
03 [c4fefc9f] (000/309) No match (V2 was not tested)
04 [c8b5ce70] (000/308) No match (V2 was not tested)
05 [b3851f62] (000/306) No match (V2 was not tested)
06 [b6a55ca9] (000/308) No match (V2 was not tested)
07 [a4bf7d57] (000/309) No match (V2 was not tested)
08 [e2c3ab6c] (000/310) No match (V2 was not tested)
09 [41db658a] (000/307) No match (V2 was not tested)
10 [5717b261] (000/309) No match (V2 was not tested)
11 [cfb24088] (000/303) No match (V2 was not tested)

Track Peak [ CRC32 ] [W/O NULL] [ LOG ]
– 100,0 [85D7ABE2] [BA2C4BEA] CRC32
01 100,0 [174744E9] [5C1773AE]
02 98,8 [69C8376C] [6B77858A]
03 98,8 [B8E0BF6D] [8B0886B7]
04 98,8 [5F6F4EBF] [6F6DF05D]
05 97,7 [E38467A9] [1154140A]
06 100,0 [03651B0E] [DEBA718F]
07 98,8 [66D50558] [CF048969]
08 98,8 [5DC27CAB] [494F50EE]
09 98,8 [AA7EC7FF] [AB164BEC]
10 98,8 [E947A901] [64B623EB]
11 98,8 [95537E98] [FB71FCFF]

Il Divo - Ancora (2005)

All thanks go to alexpika

>>> My Blog <<<

Download from icerbox.com: