Subcategories

Ilene Woods - It's Late (1957) [Japanese Edition 2012]

Posted By: gribovar
Ilene Woods - It's Late (1957) [Japanese Edition 2012]

Ilene Woods - It's Late (1957) [Japanese Edition 2012]
EAC Rip | FLAC (tracks+.cue+log) - 176 MB | MP3 CBR 320 kbps (LAME 3.93) - 84 MB | Covers - 27 MB
Genre: Vocal Jazz | RAR 3% Rec. | Label: EMI Music Japan (TOCJ-9728)

Actress/vocalist Ilene Woods (born Jacqueline Ruth Woods in Portsmouth, New Hampshire on May 5, 1929) is best remembered as being the voice of Cinderella in the Walt Disney 1950 animated classic film in which she sang Bibbidi-Bobbidi-Boo, A Dream Is A Wish Your Heart Makes and So This Is Love. Accompanied by the Harold Mooney orchestra and The Woodsmen, she also had a national hit single in January 1950 with a different recording of Bibbidi-Bobbidi-Boo, taking it to # 22 on Bluebird 0019 b/w So This Is Love. In doing so she came in third behind renditions by Jo Stafford & Gordon MacRae (# 13 for Capitol) and Perry Como (# 14 for RCA Victor), but finished ahead of Dinah Shore's version for Columbia (# 25). However, while the soundtrack version by Ilene is readily available on several CDs (the best being the 2005 Walt Disney Records release of the Original Soundtrack), finding that Bluebird original hit on CD is so far impossible.
In 1957 she cut her one album, the super-rare It's Late, for Jubilee Records. This is thankfully now available in this limited-edition cardboard sleeve CD release by EMI Japan with decent sound reproduction.
Ilene passed away at age 81 on July 1, 2010 from Alzheimer's Disease complications.
Tracklist:
01. It's a Blue World
02. Everytime
03. When Your Lover Has Gone
04. If I Love Again
05. What a Difference a Day Makes
06. Estrellita
07. While We're Young
08. If You Were Mine
09. I'm Old Fashioned
10. You're Blase
11. I Remember You
12. It's Late

Total time: 35:57

Exact Audio Copy V1.0 beta 3 from 29. August 2011

EAC extraction logfile from 6. May 2013, 22:20

Ilene Woods / It's Late

Used drive : PLEXTOR CD-R PX-W2410A Adapter: 1 ID: 0

Read mode : Secure
Utilize accurate stream : Yes
Defeat audio cache : Yes
Make use of C2 pointers : No

Read offset correction : 98
Overread into Lead-In and Lead-Out : No
Fill up missing offset samples with silence : Yes
Delete leading and trailing silent blocks : No
Null samples used in CRC calculations : Yes
Used interface : Native Win32 interface for Win NT & 2000
Gap handling : Appended to previous track

Used output format : User Defined Encoder
Selected bitrate : 256 kBit/s
Quality : High
Add ID3 tag : No
Command line compressor : C:\Program Files\Exact Audio Copy\FLAC\FLAC.EXE
Additional command line options : -8 -V -T "ARTIST=%artist%" -T "TITLE=%title%" -T "ALBUM=%albumtitle%" -T "DATE=%year%" -T "TRACKNUMBER=%tracknr%" -T "TOTALTRACKS=%numtracks%" -T "GENRE=%genre%" -T "ALBUMARTIST=%albumartist%" -T "ALBUM ARTIST=%albumartist%" -T "COMMENT=EAC Secure Mode, Test & Copy, AccurateRip, FLAC -8" %source%


TOC of the extracted CD

Track | Start | Length | Start sector | End sector
––––––––––––––––––––––––––––-
1 | 0:00.00 | 3:03.06 | 0 | 13730
2 | 3:03.06 | 3:18.53 | 13731 | 28633
3 | 6:21.59 | 2:59.64 | 28634 | 42122
4 | 9:21.48 | 3:16.47 | 42123 | 56869
5 | 12:38.20 | 2:24.17 | 56870 | 67686
6 | 15:02.37 | 3:02.42 | 67687 | 81378
7 | 18:05.04 | 2:53.37 | 81379 | 94390
8 | 20:58.41 | 3:00.43 | 94391 | 107933
9 | 23:59.09 | 3:06.47 | 107934 | 121930
10 | 27:05.56 | 3:10.22 | 121931 | 136202
11 | 30:16.03 | 3:06.57 | 136203 | 150209
12 | 33:22.60 | 2:34.11 | 150210 | 161770


Track 1

Filename D:\EAC\Ilene Woods - It's Late (1957) [CD] {2012 EMI JP TOCJ-9728}\01 - It's A Blue World.wav

Pre-gap length 0:00:02.00

Peak level 98.8 %
Extraction speed 3.6 X
Track quality 100.0 %
Test CRC 798ECF11
Copy CRC 798ECF11
Track not present in AccurateRip database
Copy OK

Track 2

Filename D:\EAC\Ilene Woods - It's Late (1957) [CD] {2012 EMI JP TOCJ-9728}\02 - Everytime.wav

Pre-gap length 0:00:02.43

Peak level 98.8 %
Extraction speed 3.5 X
Track quality 100.0 %
Test CRC D751DF82
Copy CRC D751DF82
Track not present in AccurateRip database
Copy OK

Track 3

Filename D:\EAC\Ilene Woods - It's Late (1957) [CD] {2012 EMI JP TOCJ-9728}\03 - When Your Lover Has Gone.wav

Pre-gap length 0:00:02.43

Peak level 98.8 %
Extraction speed 3.6 X
Track quality 100.0 %
Test CRC C9EB55D3
Copy CRC C9EB55D3
Track not present in AccurateRip database
Copy OK

Track 4

Filename D:\EAC\Ilene Woods - It's Late (1957) [CD] {2012 EMI JP TOCJ-9728}\04 - If I Love Again.wav

Pre-gap length 0:00:02.43

Peak level 95.9 %
Extraction speed 3.6 X
Track quality 100.0 %
Test CRC F5A7F2A0
Copy CRC F5A7F2A0
Track not present in AccurateRip database
Copy OK

Track 5

Filename D:\EAC\Ilene Woods - It's Late (1957) [CD] {2012 EMI JP TOCJ-9728}\05 - What A Difference A Day Made.wav

Pre-gap length 0:00:02.43

Peak level 98.8 %
Extraction speed 3.5 X
Track quality 100.0 %
Test CRC DA0FF9B3
Copy CRC DA0FF9B3
Track not present in AccurateRip database
Copy OK

Track 6

Filename D:\EAC\Ilene Woods - It's Late (1957) [CD] {2012 EMI JP TOCJ-9728}\06 - Estrellita.wav

Pre-gap length 0:00:02.43

Peak level 96.3 %
Extraction speed 3.2 X
Track quality 99.9 %
Test CRC BF4144D6
Copy CRC BF4144D6
Track not present in AccurateRip database
Copy OK

Track 7

Filename D:\EAC\Ilene Woods - It's Late (1957) [CD] {2012 EMI JP TOCJ-9728}\07 - While We're Young.wav

Pre-gap length 0:00:02.43

Peak level 98.8 %
Extraction speed 3.6 X
Track quality 100.0 %
Test CRC 3EEA258A
Copy CRC 3EEA258A
Track not present in AccurateRip database
Copy OK

Track 8

Filename D:\EAC\Ilene Woods - It's Late (1957) [CD] {2012 EMI JP TOCJ-9728}\08 - If You Were Mine.wav

Pre-gap length 0:00:02.43

Peak level 98.8 %
Extraction speed 3.2 X
Track quality 99.9 %
Test CRC 028B473C
Copy CRC 028B473C
Track not present in AccurateRip database
Copy OK

Track 9

Filename D:\EAC\Ilene Woods - It's Late (1957) [CD] {2012 EMI JP TOCJ-9728}\09 - I'm Old Fashioned.wav

Pre-gap length 0:00:02.43

Peak level 98.8 %
Extraction speed 3.6 X
Track quality 100.0 %
Test CRC 287677A4
Copy CRC 287677A4
Track not present in AccurateRip database
Copy OK

Track 10

Filename D:\EAC\Ilene Woods - It's Late (1957) [CD] {2012 EMI JP TOCJ-9728}\10 - You're Blase.wav

Pre-gap length 0:00:02.43

Peak level 98.8 %
Extraction speed 3.6 X
Track quality 100.0 %
Test CRC F1667A9B
Copy CRC F1667A9B
Track not present in AccurateRip database
Copy OK

Track 11

Filename D:\EAC\Ilene Woods - It's Late (1957) [CD] {2012 EMI JP TOCJ-9728}\11 - I Remember You.wav

Pre-gap length 0:00:02.43

Peak level 98.8 %
Extraction speed 3.6 X
Track quality 100.0 %
Test CRC 026F35E7
Copy CRC 026F35E7
Track not present in AccurateRip database
Copy OK

Track 12

Filename D:\EAC\Ilene Woods - It's Late (1957) [CD] {2012 EMI JP TOCJ-9728}\12 - It's Late.wav

Pre-gap length 0:00:02.43

Peak level 98.8 %
Extraction speed 3.6 X
Track quality 100.0 %
Test CRC 5378F213
Copy CRC 5378F213
Track not present in AccurateRip database
Copy OK


None of the tracks are present in the AccurateRip database

No errors occurred

End of status report

–– CUETools DB Plugin V2.1.3

[CTDB TOCID: YxjQUX619OvIjLvY4eUIb1g7vng-] disk not present in database, Submit result: YxjQUX619OvIjLvY4eUIb1g7vng- has been uploaded


==== Log checksum 5BC18C7CB4B7841794A9EA893B41983B9B867CD35D970AA081EA6A407C459893 ====

[CUETools log; Date: 19.11.2019 0:26:00; Version: 2.1.4]
[CTDB TOCID: YxjQUX619OvIjLvY4eUIb1g7vng-] found.
Track | CTDB Status
1 | (6/6) Accurately ripped
2 | (6/6) Accurately ripped
3 | (6/6) Accurately ripped
4 | (6/6) Accurately ripped
5 | (6/6) Accurately ripped
6 | (6/6) Accurately ripped
7 | (6/6) Accurately ripped
8 | (6/6) Accurately ripped
9 | (6/6) Accurately ripped
10 | (6/6) Accurately ripped
11 | (6/6) Accurately ripped
12 | (6/6) Accurately ripped
[AccurateRip ID: 001037d0-0096ef12-91086c0c] found.
Track [ CRC | V2 ] Status
01 [a2fa36ef|cc764f5a] (0+3/3) Accurately ripped
02 [5bb7fd93|05a4e511] (0+3/3) Accurately ripped
03 [1ffb674f|ee73ae13] (0+3/3) Accurately ripped
04 [3b58da08|c340fd28] (0+3/3) Accurately ripped
05 [5ae68a18|cc04dcc9] (0+3/3) Accurately ripped
06 [faeead5b|60eb7278] (0+3/3) Accurately ripped
07 [ed539de6|c5e92e8d] (0+3/3) Accurately ripped
08 [65410c61|9a1c5adb] (0+3/3) Accurately ripped
09 [35afa7c6|6d1582d3] (0+3/3) Accurately ripped
10 [18a62360|c135f819] (0+3/3) Accurately ripped
11 [ed646ee4|14903748] (0+3/3) Accurately ripped
12 [62e629e8|81a80736] (0+3/3) Accurately ripped

Track Peak [ CRC32 ] [W/O NULL] [ LOG ]
– 98,8 [7276AF60] [27CE90D1]
01 98,8 [798ECF11] [EF2DBF26] CRC32
02 98,8 [D751DF82] [0E5FF59B] CRC32
03 98,8 [C9EB55D3] [B76AC08C] CRC32
04 95,9 [F5A7F2A0] [76CD299A] CRC32
05 98,8 [DA0FF9B3] [05F33D9E] CRC32
06 96,3 [BF4144D6] [3CAFC872] CRC32
07 98,8 [3EEA258A] [C5E5D7A0] CRC32
08 98,8 [028B473C] [874613B7] CRC32
09 98,8 [287677A4] [913719CC] CRC32
10 98,8 [F1667A9B] [90C556D5] CRC32
11 98,8 [026F35E7] [9A85A6E4] CRC32
12 98,8 [5378F213] [B73C51F8] CRC32

Thanks to the original releaser