Subcategories

Illustration - Illustration (1970)

Posted By: v3122
Illustration - Illustration (1970)

Illustration - Illustration (1970)
EAC | Flac(Image) + Cue + Log & MP3 CBR 320Kbps
Iris Music, IMG-169 | ~ 203 or 47 Mb | Scans(jpg) -> 15 Mb
Progressive Rock / Jazz Rock

~ Illustration formed 1969, ST-Jean, QC, Canada. ~

I'm not much of a horn rock fan, but I do keep investigating these releases in hopes of finding those extremely elusive "good" horn rock albums. Unfortunately, I don't think this is one of them. While most bands of that period tended to keep their brass relatively at bay, in a supporting role, Illustration blatantly shoves them out front as the star of the show. This band comes off as Blood, Sweat and Tears wannabes, right down to the soulful, gravelly voiced vocals. And similarly, their material is rather light weight pop. I'm sure this album will have its fans, and they deserve them too, as they ceretainly have talent. But it's just not my thing. Grades - 5 C+'s, 2 C's, and 2 C-'s. Came with a lyric insert.

by tymeshifter, rateyourmusic.com
Illustration - Illustration (1970):

Illustration - Illustration (1970)

Tracklist:

01. Upon The Earth
02. Our Love's A Chain
03. Distant
04. I Don't Want To Cry
05. Life Tasters, Time Wasters
06. The Road
07. Home
08. Was It I
09. Box Of Glass
10. Thelicia

Exact Audio Copy V1.1 from 23. June 2015

Отчёт EAC об извлечении, выполненном 27. января 2016, 10:19

Illustration / Illustration

Дисковод: ASUS DRW-24B3ST Adapter: 0 ID: 0

Режим чтения : Достоверность
Использование точного потока : Да
Отключение кэша аудио : Да
Использование указателей C2 : Нет

Коррекция смещения при чтении : 6
Способность читать области Lead-in и Lead-out : Нет
Заполнение пропущенных сэмплов тишиной : Да
Удаление блоков с тишиной в начале и конце : Нет
При вычислениях CRC использовались нулевые сэмплы : Да
Интерфейс : Установленный внешний ASPI-интерфейс

Выходной формат : Пользовательский кодировщик
Выбранный битрейт : 896 kBit/s
Качество : Высокий
Добавление ID3-тега : Нет
Утилита сжатия : C:\Program Files (x86)\Exact Audio Copy\FLAC\FLAC.EXE
Дополнительные параметры : -6 -V -T "ARTIST=%artist%" -T "TITLE=%title%" -T "ALBUM=%albumtitle%" -T "DATE=%year%" -T "TRACKNUMBER=%tracknr%" -T "GENRE=%genre%" -T "COMMENT=%comment%" -T "BAND=%albuminterpret%" -T "ALBUMARTIST=%albuminterpret%" -T "COMPOSER=%composer%" %haslyrics%–tag-from-file=LYRICS="%lyricsfile%"%haslyrics% -T "DISCNUMBER=%cdnumber%" -T "TOTALDISCS=%totalcds%" -T "TOTALTRACKS=%numtracks%" %hascover%–picture="%coverfile%"%hascover% %source% -o %dest%


TOC извлечённого CD

Трек | Старт | Длительность | Начальный сектор | Конечный сектор
––––––––––––––––––––––––––––––––––-
1 | 0:00.00 | 2:08.48 | 0 | 9647
2 | 2:08.48 | 2:32.48 | 9648 | 21095
3 | 4:41.21 | 3:48.48 | 21096 | 38243
4 | 8:29.69 | 3:21.48 | 38244 | 53366
5 | 11:51.42 | 2:35.48 | 53367 | 65039
6 | 14:27.15 | 3:08.48 | 65040 | 79187
7 | 17:35.63 | 3:32.48 | 79188 | 95135
8 | 21:08.36 | 2:32.48 | 95136 | 106583
9 | 23:41.09 | 4:30.48 | 106584 | 126881
10 | 28:11.57 | 3:22.48 | 126882 | 142079


Характеристики диапазона извлечения и сообщения об ошибках

Выбранный диапазон

Имя файла C:\Users\Валерий\Music\Illustration - 1970 - Illustration\Illustration - Illustration.wav

Пиковый уровень 100.0 %
Скорость извлечения 8.0 X
Качество диапазона 99.9 %
CRC теста 0B7DEA8B
CRC копии 0B7DEA8B
Копирование… OK

Ошибок не произошло

Конец отчёта

==== Контрольная сумма отчёта FA985052A69381933751B62116488EB41FAD2D76B623F6BDDCDFAB1847D062A2 ====


[CUETools log; Date: 07.08.2017 21:16:26; Version: 2.1.4]
[CTDB TOCID: c6gWBfrFsFT.O_c3QDVVfx3PpFQ-] found.
Track | CTDB Status
1 | (1/1) Accurately ripped
2 | (1/1) Accurately ripped
3 | (1/1) Accurately ripped
4 | (1/1) Accurately ripped
5 | (1/1) Accurately ripped
6 | (1/1) Accurately ripped
7 | (1/1) Accurately ripped
8 | (1/1) Accurately ripped
9 | (1/1) Accurately ripped
10 | (1/1) Accurately ripped
[AccurateRip ID: 000b3ff1-005b8994-7007660a] disk not present in database.

Track Peak [ CRC32 ] [W/O NULL] [ LOG ]
– 100,0 [0B7DEA8B] [BB63CDD4] CRC32
01 100,0 [9E255031] [224FAD80]
02 100,0 [BD70A3CD] [47E86892]
03 92,6 [5F85AEE4] [5F444459]
04 100,0 [38344DBD] [D13091E8]
05 100,0 [16CF2C01] [6E313C49]
06 100,0 [B0157095] [E2E82E8E]
07 96,9 [B8F7B994] [25AE0FFA]
08 100,0 [A25AB3C3] [7F997201]
09 97,6 [363DF4FE] [5F83B4AE]
10 100,0 [A6F2193D] [B89B8934]


Illustration - Illustration (1970)

All thanks go to Копысов

Download Illustration - Illustration (1970):