Subcategories

Indra - Live in the Salt Mine 2007 (2010)

Posted By: gribovar
Indra - Live in the Salt Mine 2007 (2010)

Indra - Live in the Salt Mine 2007 (2010)
EAC Rip | FLAC (tracks+.cue+log) - 470 MB | MP3 CBR 320 kbps (LAME 3.93) - 183 MB | Covers (4 MB) included
Genre: Electronic, Berlin School | RAR 3% Rec. | Label: Eagle Music

Live in the Salt Mine is a must for all the fans of Indra and to those who want to discover the man and his music. The CD offers 3 catchy tracks and a long dreamy music piece. A concert that was difficult to capture because of the imponderables link to an underground filming, from where a shorter version of the concert on DVD than the CD which gains 25 minutes missing on the DVD performance. Anyway, it remains a good audio-visual document and a very good CD where the music of the Romanian magician cannot let anybody indifferent.
Tracklist:
01. Magneto
02. The Moog Prophecy
03. Mythical Forest (Extended version)
04. Encore (Bonus track)

Total time: 01:14:48

Exact Audio Copy V0.99 prebeta 5 from 4. May 2009

EAC extraction logfile from 6. December 2010, 19:48

Indra / Live in the Saltmine 2007

Used drive : PLEXTOR DVDR PX-800A Adapter: 0 ID: 0

Read mode : Secure
Utilize accurate stream : Yes
Defeat audio cache : Yes
Make use of C2 pointers : No

Read offset correction : 48
Overread into Lead-In and Lead-Out : No
Fill up missing offset samples with silence : Yes
Delete leading and trailing silent blocks : No
Null samples used in CRC calculations : Yes
Used interface : Native Win32 interface for Win NT & 2000
Gap handling : Appended to previous track

Used output format : User Defined Encoder
Selected bitrate : 1024 kBit/s
Quality : High
Add ID3 tag : No
Command line compressor : C:\Program Files\Exact Audio Copy\FLAC\FLAC.EXE
Additional command line options : -6 -V -T "ARTIST=%a" -T "TITLE=%t" -T "ALBUM=%g" -T "DATE=%y" -T "TRACKNUMBER=%n" -T "GENRE=%m" -T "COMMENT=%e" %s -o %d


TOC of the extracted CD

Track | Start | Length | Start sector | End sector
––––––––––––––––––––––––––––-
1 | 0:00.00 | 20:40.06 | 0 | 93005
2 | 20:40.06 | 16:42.68 | 93006 | 168223
3 | 37:22.74 | 27:52.21 | 168224 | 293644
4 | 65:15.20 | 9:36.65 | 293645 | 336909


Track 1

Filename C:\Temp\01. Indra - Magneto.wav

Pre-gap length 0:00:02.00

Peak level 100.0 %
Track quality 100.0 %
Test CRC B03A3BF3
Copy CRC B03A3BF3
Accurately ripped (confidence 1) [C0079604]
Copy OK

Track 2

Filename C:\Temp\02. Indra - The Moog Prophecy.wav

Pre-gap length 0:00:05.69

Peak level 100.0 %
Track quality 100.0 %
Test CRC B3304862
Copy CRC B3304862
Accurately ripped (confidence 1) [60D465C9]
Copy OK

Track 3

Filename C:\Temp\03. Indra - Mythical Forest.wav

Pre-gap length 0:00:05.72

Peak level 100.0 %
Track quality 99.9 %
Test CRC 32EEAD83
Copy CRC 32EEAD83
Accurately ripped (confidence 1) [307A7686]
Copy OK

Track 4

Filename C:\Temp\04. Indra - Encore.wav

Pre-gap length 0:00:03.17

Peak level 100.0 %
Track quality 100.0 %
Test CRC 71B5542C
Copy CRC 71B5542C
Accurately ripped (confidence 1) [6AAB3E17]
Copy OK


All tracks accurately ripped

No errors occurred

End of status report

[CUETools log; Date: 05.10.2017 10:48:11; Version: 2.1.4]
[CTDB TOCID: 9ZfKngV1JUVh9F2xF3ngcNPAhhA-] found.
Track | CTDB Status
1 | (1/1) Accurately ripped
2 | (1/1) Accurately ripped
3 | (1/1) Accurately ripped
4 | (1/1) Accurately ripped
[AccurateRip ID: 000d9b89-00362a77-2b118c04] found.
Track [ CRC | V2 ] Status
01 [c0079604|e059442f] (1+0/1) Accurately ripped
02 [60d465c9|b4cfbaae] (1+0/1) Accurately ripped
03 [307a7686|78e511a0] (1+0/1) Accurately ripped
04 [6aab3e17|44e9a765] (1+0/1) Accurately ripped

Track Peak [ CRC32 ] [W/O NULL] [ LOG ]
– 99,9 [CD3C1AE5] [59C35377]
01 99,9 [B03A3BF3] [DC859B2B] CRC32
02 99,9 [B3304862] [229AF437] CRC32
03 99,9 [32EEAD83] [AB1B7D26] CRC32
04 99,9 [71B5542C] [CF0D92D4] CRC32

Thanks to Holon (ariom)

See also:
Indra - Kingdom of Light (1993) [Reissue 2011]