Subcategories

Ingrid Fliter - Beethoven Piano Sonatas (2011)

Posted By: TmanHome
Ingrid Fliter - Beethoven Piano Sonatas (2011)

Ingrid Fliter - Beethoven Piano Sonatas (2011)
EAC | FLAC | Tracks (Cue & Log) ~ 288 mb | MP3 320 kbps CBR ~ 167 mb | Scans included | 72 min
Classical | Label: Warner Classics | Rel: 2011

Ingrid Fliter, a pianist of Argentine background, was known mostly as a Chopin specialist until the 2011 release of this group of Beethoven sonatas. Crossing the divide between "early" and "middle" Beethoven, the selection reflects that background; all three are clearly proto-Romantic Beethoven, with subjective, episodic structures. Fliter's playing points up the connection to Chopin strongly; it is chamber-sized and reflective. It's not that Fliter lacks power; the finale of the Piano Sonata No. 23 in F minor, Op. 57 ("Appassionata"), explodes in perorations of resounding left-hand chords. But she deploys the power sparingly. The most original interpretation of the three comes in the Piano Sonata No. 17 in D minor, Op. 31/2 ("Tempest"), the most proto-Romantic of all the early sonatas. Hear how Fliter, simply by being quiet and careful with her phrasing in the first movment, gives its alternations of soft and loud a weird, unearthly quality. The "Appassionata" is also very strong, with a dramatic yet inward quality, but the Piano Sonata No. 8 in C minor, Op. 13 ("Pathétique"), breaks new ground only in its very poetic slow movement. It is unknown whether Fliter has studied the Beethoven work of historical-instrument specialists such as Paul Komen, but her emphasis on modest dimensions and on contrast and phrasing over drama and power suggest that she is drawing on similar ways of thinking to theirs. A very promising Beethoven debut.

Tracklist:

01 - Beethoven - Piano Sonata No. 8 in C minor, Op.13 'Pathetique' - I. Grave - Allegro di molto e con brio
02 - Beethoven - Piano Sonata No. 8 in C minor, Op.13 'Pathetique' - II. Adagio cantabile
03 - Beethoven - Piano Sonata No. 8 in C minor, Op.13 'Pathetique' - III. Rondo Allegro
04 - Beethoven - Piano Sonata No. 17 in D minor, Op.31 No. 2 'Tempest' - I. Largo Allegro
05 - Beethoven - Piano Sonata No. 17 in D minor, Op.31 No. 2 'Tempest' - II. Adagio
06 - Beethoven - Piano Sonata No. 17 in D minor, Op.31 No. 2 'Tempest' - III. Allegretto
07 - Beethoven - Piano Sonata No. 23 in F minor, Op.57 'Appassionata' - I. Allegro assai
08 - Beethoven - Piano Sonata No. 23 in F minor, Op.57 'Appassionata' - II. Andante con moto
09 - Beethoven - Piano Sonata No. 23 in F minor, Op.57 'Appassionata' - III. Allegro ma non troppo - Presto

Exact Audio Copy V1.1 from 23. June 2015

EAC extraction logfile from 22. September 2015, 4:17

Ingrid Fliter / Beethoven Piano Sonatas

Used drive : ASUS DRW-24B1ST i Adapter: 1 ID: 0

Read mode : Secure
Utilize accurate stream : Yes
Defeat audio cache : Yes
Make use of C2 pointers : No

Read offset correction : 6
Overread into Lead-In and Lead-Out : No
Fill up missing offset samples with silence : Yes
Delete leading and trailing silent blocks : No
Null samples used in CRC calculations : Yes
Used interface : Native Win32 interface for Win NT & 2000
Gap handling : Appended to previous track

Used output format : User Defined Encoder
Selected bitrate : 128 kBit/s
Quality : High
Add ID3 tag : No
Command line compressor : C:\Program Files (x86)\Exact Audio Copy\Flac\flac.exe
Additional command line options : -8 -V -T "ARTIST=%artist%" -T "TITLE=%title%" -T "ALBUM=%albumtitle%" -T "DATE=%year%" -T "TRACKNUMBER=%tracknr%" -T "TOTALTRACKS=%numtracks%" -T "GENRE=%genre%" -T "ALBUMARTIST=%albumartist%" -T "ALBUM ARTIST=%albumartist%" -T "COMMENT=EAC Secure Mode, Test & Copy, AccurateRip, FLAC -8" %source%


TOC of the extracted CD

Track | Start | Length | Start sector | End sector
––––––––––––––––––––––––––––-
1 | 0:00.00 | 11:16.10 | 0 | 50709
2 | 11:16.10 | 5:51.31 | 50710 | 77065
3 | 17:07.41 | 4:53.70 | 77066 | 99110
4 | 22:01.36 | 9:50.50 | 99111 | 143410
5 | 31:52.11 | 9:11.43 | 143411 | 184778
6 | 41:03.54 | 6:58.02 | 184779 | 216130
7 | 48:01.56 | 10:01.44 | 216131 | 261249
8 | 58:03.25 | 6:33.64 | 261250 | 290788
9 | 64:37.14 | 8:20.61 | 290789 | 328349


Track 1

Filename D:\_Post\Fliter\01 - Beethoven - Piano Sonata No. 8 in C minor, Op.13 'Pathetique' - I. Grave - Allegro di molto e con brio.wav

Pre-gap length 0:00:02.00

Peak level 92.4 %
Extraction speed 2.4 X
Track quality 100.0 %
Test CRC A4CCD382
Copy CRC A4CCD382
Accurately ripped (confidence 21) [166BC868] (AR v2)
Copy OK

Track 2

Filename D:\_Post\Fliter\02 - Beethoven - Piano Sonata No. 8 in C minor, Op.13 'Pathetique' - II. Adagio cantabile.wav

Peak level 56.9 %
Extraction speed 2.7 X
Track quality 100.0 %
Test CRC 1CCAB079
Copy CRC 1CCAB079
Accurately ripped (confidence 21) [AA14E1EE] (AR v2)
Copy OK

Track 3

Filename D:\_Post\Fliter\03 - Beethoven - Piano Sonata No. 8 in C minor, Op.13 'Pathetique' - III. Rondo Allegro.wav

Peak level 96.1 %
Extraction speed 2.8 X
Track quality 100.0 %
Test CRC 6CA803CC
Copy CRC 6CA803CC
Accurately ripped (confidence 21) [37089F56] (AR v2)
Copy OK

Track 4

Filename D:\_Post\Fliter\04 - Beethoven - Piano Sonata No. 17 in D minor, Op.31 No. 2 'Tempest' - I. Largo Allegro.wav

Pre-gap length 0:00:10.04

Peak level 85.1 %
Extraction speed 3.3 X
Track quality 100.0 %
Test CRC 549D32F1
Copy CRC 549D32F1
Accurately ripped (confidence 21) [1261DBF1] (AR v2)
Copy OK

Track 5

Filename D:\_Post\Fliter\05 - Beethoven - Piano Sonata No. 17 in D minor, Op.31 No. 2 'Tempest' - II. Adagio.wav

Peak level 40.8 %
Extraction speed 3.6 X
Track quality 100.0 %
Test CRC 8DC505D3
Copy CRC 8DC505D3
Accurately ripped (confidence 21) [0EE714C1] (AR v2)
Copy OK

Track 6

Filename D:\_Post\Fliter\06 - Beethoven - Piano Sonata No. 17 in D minor, Op.31 No. 2 'Tempest' - III. Allegretto.wav

Peak level 75.7 %
Extraction speed 3.7 X
Track quality 100.0 %
Test CRC 0EE874DE
Copy CRC 0EE874DE
Accurately ripped (confidence 21) [83CD640B] (AR v2)
Copy OK

Track 7

Filename D:\_Post\Fliter\07 - Beethoven - Piano Sonata No. 23 in F minor, Op.57 'Appassionata' - I. Allegro assai.wav

Pre-gap length 0:00:10.34

Peak level 94.4 %
Extraction speed 3.5 X
Track quality 99.9 %
Test CRC 8EA1F21A
Copy CRC 8EA1F21A
Accurately ripped (confidence 21) [7A6EA944] (AR v2)
Copy OK

Track 8

Filename D:\_Post\Fliter\08 - Beethoven - Piano Sonata No. 23 in F minor, Op.57 'Appassionata' - II. Andante con moto.wav

Peak level 69.7 %
Extraction speed 4.1 X
Track quality 100.0 %
Test CRC 507A2AF1
Copy CRC 507A2AF1
Accurately ripped (confidence 21) [713A842E] (AR v2)
Copy OK

Track 9

Filename D:\_Post\Fliter\09 - Beethoven - Piano Sonata No. 23 in F minor, Op.57 'Appassionata' - III. Allegro ma non troppo - Presto.wav

Peak level 85.3 %
Extraction speed 4.5 X
Track quality 100.0 %
Test CRC 878EC4D6
Copy CRC 878EC4D6
Accurately ripped (confidence 21) [614B96D6] (AR v2)
Copy OK


All tracks accurately ripped

No errors occurred

End of status report

–– CUETools DB Plugin V2.1.6

[CTDB TOCID: 2_mt6Bzb_BgWr5q1oUcETD1.9.I-] found
Submit result: 2_mt6Bzb_BgWr5q1oUcETD1.9.I- has been confirmed
Track | CTDB Status
1 | (6/6) Accurately ripped
2 | (6/6) Accurately ripped
3 | (6/6) Accurately ripped
4 | (6/6) Accurately ripped
5 | (6/6) Accurately ripped
6 | (6/6) Accurately ripped
7 | (6/6) Accurately ripped
8 | (6/6) Accurately ripped
9 | (6/6) Accurately ripped


==== Log checksum C42F3A178B4FD2B54ECC62FB5FB9BFCA80DBF9EE074B75F9B908BE7EEDB40F49 ====


All thanks to the original uploader: Charon