Subcategories

Inner Circle - Sweat A La La La La Long: The Best Of Inner Circle (2004) [Re-Up]

Posted By: Designol
Inner Circle - Sweat A La La La La Long: The Best Of Inner Circle (2004) [Re-Up]

Inner Circle - Sweat A La La La La Long: The Best Of Inner Circle (2004)
EAC | FLAC | Image (Cue&Log) ~ 545 Mb | Mp3 (CBR320) ~ 173 Mb | Scans ~ 113 Mb
Reggae, Reggae-Pop, Roots Reggae | Label: WEA | # 5050467-4363-2-9 | 01:15:16

2004 anthology from the veteran reggae singing group that includes their best known hits like "Book of Rules", "Games People Play", "Bad Boys" (The Theme to the TV Show "Cops") as Well as a Re-recorded Version of "Sweat" featuring Lady Saw. Also includes five tracks recorded for this Collection as well.

Inner Circle is, of course, best known for "Bad Boys," a ubiquitous crossover hit thanks to its use as the theme song for the long-running Fox TV reality series Cops. But the band had a lengthy history prior to its international breakthrough, dating all the way back to the late '60s. They hit the big time in Jamaica during the '70s as a danceable yet rootsy Rastafarian reggae outfit, fronted by the charismatic singer Jacob Miller. Miller's tragic death in a car accident in 1980 put the group on hiatus for several years, and when they finally regrouped in the mid-'80s, they began to temper their rootsiness with elements of pop, R&B, and dancehall. Originally recorded in 1987, "Bad Boys" became a worldwide smash in the early '90s, and the group soldiered on into the new millennium amid several personnel changes.

Inner Circle was originally formed by brothers Ian (bass) and Roger Lewis (guitar) in 1968. The group's other charter members were guitarist Steven "Cat" Coore, keyboardist Michael "Ibo" Cooper, and multi-instrumentalist Richard Daley. Initially, they made their living playing in hotel lounges. When the rest of the band split to form Third World in 1973, the Lewis brothers assembled a new lineup that included keyboardists Bernard "Touter" Harvey and Charles Farquharson (the latter of whom didn't stick around for long), and drummer Rasheed McKenzie. Inner Circle recorded a couple of albums for Trojan over 1974-1975, Rock the Boat and Blame It on the Sun, which relied to some degree on smooth American soul covers. They also had a small hit single with "I See You."

Inner Circle's musical outlook changed with the arrival of vocalist Jacob Miller in 1976. Miller, a devout Rastafarian and a successful solo artist in his own right, made the band into a more spiritual, socially conscious outfit, and they quickly signed with Capitol Records. Over the next few years, Miller penned hits like "Tenement Yard," "Forward Jah Jah Children," "Tired Fe Lick Weed in a Bush," and "All Night Till Daylight" (some of which were credited to Miller, but nonetheless featured the whole band). Capitol issued two LPs, 1976's Reggae Thing and 1977's Ready for the World; sometime during this period, the group also recorded a bit with disco stars KC & the Sunshine Band.

At the peak of their early popularity in Jamaica, Inner Circle performed at the legendary One Love Peace Concert in 1978, along with Bob Marley and many others. Heartland Reggae, the film documentary of the concert, helped introduce them to international audiences, and landed them a new deal with Island Records. Their 1979 label debut, Everything Is Great, was a hit in Europe, and the disco-tinged title track made the U.K. Top 20 and the French Top Ten. Several more singles, including "Stop Breaking My Heart," "Mary, Mary," and "Music Machine," helped consolidate their success. Tragically, just as the band was poised for a major international breakthrough, Miller was killed in a car accident on March 23, 1980. Devastated, the rest of the band broke up. Ian Lewis and Harvey moved to Miami and opened a recording studio, and Roger Lewis joined them several years later.

Roger's arrival in Miami sparked a renewal of the old Inner Circle chemistry, and soon the band decided to re-form, recruiting new lead singer Carlton Coffie and drummer Lancelot Hall. They recorded the comeback album Black Roses for Ras in 1986, updating their old roots style with elements of contemporary dance music, R&B, pop, and the emerging dancehall sound. The follow-up, 1987's One Way, was a generally acclaimed effort that followed much the same blueprint, and contained the original recording of "Bad Boys." The group mounted a successful tour in support, but took several years to come up with another album, finally returning in 1991 with Identified.

Meanwhile, the Fox television network chose "Bad Boys" as the opening theme song for its police reality show Cops, which premiered in March 1989. As the program swelled into a hit, "Bad Boys" became a household pop-culture reference. Cops was syndicated throughout the world, including Sweden, where "Bad Boys" was released as a single in 1991 and topped the charts. From there, it became a hit in several other European countries as well. "Bad Boys" was finally issued in the U.S. in 1993, and vaulted into the pop Top Ten. An album of the same name was quickly cobbled together from existing material; most of it was from the group's 1992 party-reggae album Bad to the Bone, which supplied the sexy follow-up single, the Top 20 hit "Sweat (A La La La La Long)." Bad Boys won a Grammy for Best Reggae Album, and its title song eventually sold over seven million copies worldwide.

Inner Circle quickly recorded a follow-up album, the pop-oriented Reggae Dancer, which was released in 1994. Its lead single, "Summer Jammin'," was featured in the Eddie Murphy comedy Beverly Hills Cop III, but the enterprise failed to sustain Inner Circle's momentum as a pop-culture phenomenon. In 1995, "Bad Boys" was again used as a title song, this time for the Will Smith/Martin Lawrence action comedy of the same name. Around that time, however, Coffie was hospitalized with a serious illness, and was forced to take leave from the band. When he recovered, he decided to start a solo career, and was officially replaced by his substitute, singer/toaster Kris Bentley. Bentley made his debut on the 1997 set Da Bomb, which was issued in America one year later in a slightly reconfigured version titled Speak My Language. The band mounted extensive world tours over the next few years, and continued to release new albums, including 2000's Big Tings.

Steve Huey, Allmusic.com

Inner Circle - Sweat A La La La La Long: The Best Of Inner Circle (2004) [Re-Up]



Tracklist:

01. Sweat (A La La La La Long) [2004] (03:56)
02. Da Bomb (03:43)
03. Games People Play (03:26)
04. Ob-La-Di, Ob-La-Di (04:03)
05. Bad Boys (03:51)
06. Not About Romance (04:26)
07. Book Of Rules (03:20)
08. Reggae Dancer (03:10)
09. Rock With You (03:35)
10. Broken Wings (03:34)
11. I Spy (What Do I Spy) (04:19)
12. Speak My Language feat Speech (04:08)
13. Bad To The Bone (04:50)
14. La Di Da (Join The Army) (03:24)
15. Girls Gone Wild (03:51)
16. I Love Girls (03:12)
17. Black And White (03:42)
18. Montego Bay (03:19)
19. Boardwalk (03:31)
20. Sweat (A La La La La Long) [Original Version] (03:47)


Exact Audio Copy V1.0 beta 3 from 29. August 2011

EAC extraction logfile from 16. March 2015, 17:47

Inner Circle / Sweat A La La La La Long - The Best Of Inner Circle

Used drive : HL-DT-STDVDRAM GH22NS40 Adapter: 4 ID: 0

Read mode : Secure
Utilize accurate stream : Yes
Defeat audio cache : Yes
Make use of C2 pointers : No

Read offset correction : 667
Overread into Lead-In and Lead-Out : No
Fill up missing offset samples with silence : Yes
Delete leading and trailing silent blocks : No
Null samples used in CRC calculations : Yes
Used interface : Native Win32 interface for Win NT & 2000

Used output format : User Defined Encoder
Selected bitrate : 1024 kBit/s
Quality : High
Add ID3 tag : No
Command line compressor : C:\Program Files\FLAC\flac.exe
Additional command line options : -V -8 -T "Date=%year%" -T "Genre=%genre%" %source%


TOC of the extracted CD

Track | Start | Length | Start sector | End sector
––––––––––––––––––––––––––––-
1 | 0:00.00 | 3:56.29 | 0 | 17728
2 | 3:56.29 | 3:43.12 | 17729 | 34465
3 | 7:39.41 | 3:26.69 | 34466 | 49984
4 | 11:06.35 | 4:03.30 | 49985 | 68239
5 | 15:09.65 | 3:51.50 | 68240 | 85614
6 | 19:01.40 | 4:26.30 | 85615 | 105594
7 | 23:27.70 | 3:20.07 | 105595 | 120601
8 | 26:48.02 | 3:10.10 | 120602 | 134861
9 | 29:58.12 | 3:35.51 | 134862 | 151037
10 | 33:33.63 | 3:34.66 | 151038 | 167153
11 | 37:08.54 | 4:19.50 | 167154 | 186628
12 | 41:28.29 | 4:08.03 | 186629 | 205231
13 | 45:36.32 | 4:50.45 | 205232 | 227026
14 | 50:27.02 | 3:24.23 | 227027 | 242349
15 | 53:51.25 | 3:51.19 | 242350 | 259693
16 | 57:42.44 | 3:12.56 | 259694 | 274149
17 | 60:55.25 | 3:42.24 | 274150 | 290823
18 | 64:37.49 | 3:19.21 | 290824 | 305769
19 | 67:56.70 | 3:31.37 | 305770 | 321631
20 | 71:28.32 | 3:47.59 | 321632 | 338715


Range status and errors

Selected range

Filename I:\Rips\Inner Circle - Sweat A La La La La Long - The Best Of Inner Circle.wav

Peak level 98.9 %
Extraction speed 2.0 X
Range quality 99.9 %
Test CRC 1AA5B69F
Copy CRC 1AA5B69F
Copy OK

No errors occurred


AccurateRip summary

Track 1 accurately ripped (confidence 8) [533AB654] (AR v2)
Track 2 accurately ripped (confidence 8) [4B3FA19C] (AR v2)
Track 3 accurately ripped (confidence 8) [1C8FEF67] (AR v2)
Track 4 accurately ripped (confidence 8) [41122183] (AR v2)
Track 5 accurately ripped (confidence 8) [2B140A31] (AR v2)
Track 6 accurately ripped (confidence 8) [8C50902F] (AR v2)
Track 7 accurately ripped (confidence 8) [A4CA0930] (AR v2)
Track 8 accurately ripped (confidence 8) [F299CB08] (AR v2)
Track 9 accurately ripped (confidence 8) [1FB45F25] (AR v2)
Track 10 accurately ripped (confidence 8) [D04F90D4] (AR v2)
Track 11 accurately ripped (confidence 8) [04E208DB] (AR v2)
Track 12 accurately ripped (confidence 8) [A7C9BE0D] (AR v2)
Track 13 accurately ripped (confidence 8) [9D80FD8F] (AR v2)
Track 14 accurately ripped (confidence 8) [82516453] (AR v2)
Track 15 accurately ripped (confidence 8) [F0936CFB] (AR v2)
Track 16 accurately ripped (confidence 8) [2C4C5186] (AR v2)
Track 17 accurately ripped (confidence 8) [8CB26A85] (AR v2)
Track 18 accurately ripped (confidence 8) [C6B5F246] (AR v2)
Track 19 accurately ripped (confidence 8) [DBBE9893] (AR v2)
Track 20 accurately ripped (confidence 8) [DE11F897] (AR v2)

All tracks accurately ripped

End of status report

==== Log checksum 888A9685483A4CF4D695D7260595807BE9A9C0639376B1EB5F1336F2F936D28D ====

foobar2000 1.2 / Dynamic Range Meter 1.1.1
log date: 2015-04-24 16:39:27

––––––––––––––––––––––––––––––––––––––––
Analyzed: Inner Circle feat. Lady Saw / Sweat A La La La La Long - The Best Of Inner Circle (1)
Inner Circle feat. Speech / Sweat A La La La La Long - The Best Of Inner Circle (2)
––––––––––––––––––––––––––––––––––––––––

DR Peak RMS Duration Track
––––––––––––––––––––––––––––––––––––––––
DR6 -0.20 dB -7.57 dB 3:56 01-Sweat (A La La La La Long) [2004]
DR9 -0.10 dB -10.59 dB 4:08 12-Speak My Language feat Speech
––––––––––––––––––––––––––––––––––––––––

Number of tracks: 2
Official DR value: DR8

Samplerate: 44100 Hz
Channels: 2
Bits per sample: 16
Bitrate: 1011 kbps
Codec: FLAC
================================================================================

––––––––––––––––––––––––––––––––––––––––
Analyzed: Inner Circle / Sweat A La La La La Long - The Best Of Inner Circle
––––––––––––––––––––––––––––––––––––––––

DR Peak RMS Duration Track
––––––––––––––––––––––––––––––––––––––––
DR8 -0.10 dB -8.68 dB 3:43 02-Da Bomb
DR8 -0.10 dB -9.04 dB 3:27 03-Games People Play
DR7 -0.10 dB -8.86 dB 4:03 04-Ob-La-Di, Ob-La-Di
DR9 -0.10 dB -10.13 dB 3:52 05-Bad Boys
DR8 -0.10 dB -8.96 dB 4:26 06-Not About Romance
DR8 -0.10 dB -9.67 dB 3:20 07-Book Of Rules
DR7 -0.10 dB -7.89 dB 3:10 08-Reggae Dancer
DR10 -0.10 dB -10.41 dB 3:36 09-Rock With You
DR7 -0.10 dB -8.99 dB 3:35 10-Broken Wings
DR9 -0.10 dB -9.99 dB 4:20 11-I Spy (What Do I Spy)
DR8 -0.10 dB -9.27 dB 4:51 13-Bad To The Bone
DR7 -0.10 dB -8.39 dB 3:24 14-La Di Da (Join The Army)
DR8 -0.10 dB -9.03 dB 3:51 15-Girls Gone Wild
DR8 -0.17 dB -9.76 dB 3:13 16-I Love Girls
DR9 -0.10 dB -10.15 dB 3:42 17-Black And White
DR8 -0.10 dB -9.74 dB 3:19 18-Montego Bay
DR8 -0.10 dB -9.34 dB 3:31 19-Boardwalk
DR8 -0.10 dB -9.05 dB 3:48 20-Sweat (A La La La La Long) [Original Version]
––––––––––––––––––––––––––––––––––––––––

Number of tracks: 18
Official DR value: DR8

Samplerate: 44100 Hz
Channels: 2
Bits per sample: 16
Bitrate: 1011 kbps
Codec: FLAC
================================================================================

Inner Circle - Sweat A La La La La Long: The Best Of Inner Circle (2004) [Re-Up]

Inner Circle - Sweat A La La La La Long: The Best Of Inner Circle (2004) [Re-Up]

All thanks to original releaser - powermet

More interesting music in My Blog