Subcategories

Iommi - Iommi (2000) (Japan VJCP-68261) RESTORED

Posted By: Necromandus
Iommi - Iommi (2000) (Japan VJCP-68261) RESTORED

Iommi - Iommi (2000)
EAC Rip | FLAC, IMG+CUE+LOG | 400 MB | MP3 CBR 320 Kbps | 130 MB | Complete HQ Scans | PNG -> 110 MB
Heavy Metal | Label: Divine/Toshiba EMI Japan #VJCP-68261 | RAR 3% Rec. | Nitroflare.com
… Legendary Tony Iommi with Ozzy Osbourne, Peter Steele, Dave Grohl, Philip Anselmo and others …

Iommi is Black Sabbath guitarist Tony Iommi's first official solo album. He came close before. 1986's Seventh Star was supposed to be, but Warner Bros. insisted on calling it a Black Sabbath Featuring Tony Iommi record for marketing purposes. In a way, Iommi is nearly a Black Sabbath tribute album since its ten songs each feature an all-star guest vocalist. Actually, "Who's Fooling Who" is three-fourths Black Sabbath since it includes vocalist Ozzy Osbourne and drummer Bill Ward. The other singers are Black Flag and Rollins Band's Henry Rollins, Skunk Anansie's Skin, Nirvana and the Foo Fighters' Dave Grohl, Pantera's Philip Anselmo, System of a Down's Serj Tankian, the Smashing Pumpkins' Billy Corgan, the Cult's Ian Astbury, Type O Negative's Peter Steele, and Billy Idol. Guest musicians include Queen guitarist Brian May, John Mellencamp drummer Kenny Aronoff, White Zombie drummer John Tempesta, Soundgarden bassist Ben Shepherd, Soundgarden and Pearl Jam drummer Matt Cameron, and '80s-era Black Sabbath bassist Laurence Cottle. Iommi is a rather predictable but generally effective mix of its namesake's menacing riffs and modern-sounding vocals and drums. Rollins actually sings (not growls) on "Laughing Man (In the Devil Mask)." Skin's voice on "Meat" is restrained at first, but she gets progressively spunkier. "Goodbye Lament," featuring Grohl, earned immediate, multi-format radio airplay thanks to the combination of heavy guitars and a seemingly keyboard-programmed (but uncredited) backing track. Corgan's nasally voice mars "Black Oblivion," but the overall melody and catchy riffs rescue it. Astbury is an excellent fit on "Flame On." Steele's creepy vocals, Iommi's droning riffs, and the twisted lyrics make "Just Say No to Love" a dangerous, eerie highlight. Surprisingly, the best song is "Into the Night" thanks to the rather unexpected vocal strength of Idol. The exciting, steamroller middle section features Iommi andIdol thundering along in tandem.

~ by Bret Adams, allmusic.com
Tracklist:

1. Laughing Man (In The Devil Mask) - featuring Henry Rollins - 3:40
2. Meat - featuring Skin - 4:53
3. Goodbye Lament - featuring Dave Grohl - 4:50
4. Time Is Mine - featuring Philip Anselmo - 4:56
5. Patterns - featuring Serj Tankian - 4:20
6. Black Oblivion - featuring Billy Corgan - 8:20
7. Flame On - featuring Ian Astbury - 4:29
8. Just Say No To Love - featuring Peter Steele - 4:27
9. Who's Fooling Who - featuring Ozzy Osbourne - 6:10
10. Into The Night - featuring Billy Idol - 5:02

Exact Audio Copy V1.0 beta 3 from 29. August 2011

EAC extraction logfile from 10. February 2014, 20:52

Iommi / Iommi (Japan VJCP-68261)

Used drive : PIONEER DVD-RW DVR-219L Adapter: 1 ID: 0

Read mode : Secure
Utilize accurate stream : Yes
Defeat audio cache : Yes
Make use of C2 pointers : No

Read offset correction : 6
Overread into Lead-In and Lead-Out : No
Fill up missing offset samples with silence : Yes
Delete leading and trailing silent blocks : No
Null samples used in CRC calculations : Yes
Used interface : Native Win32 interface for Win NT & 2000

Used output format : Internal WAV Routines
Sample format : 44.100 Hz; 16 Bit; Stereo


TOC of the extracted CD

Track | Start | Length | Start sector | End sector
––––––––––––––––––––––––––––-
1 | 0:00.00 | 3:40.32 | 0 | 16531
2 | 3:40.32 | 4:53.33 | 16532 | 38539
3 | 8:33.65 | 4:50.27 | 38540 | 60316
4 | 13:24.17 | 4:55.55 | 60317 | 82496
5 | 18:19.72 | 4:20.28 | 82497 | 102024
6 | 22:40.25 | 8:20.02 | 102025 | 139526
7 | 31:00.27 | 4:28.70 | 139527 | 159696
8 | 35:29.22 | 4:27.08 | 159697 | 179729
9 | 39:56.30 | 6:09.42 | 179730 | 207446
10 | 46:05.72 | 5:01.55 | 207447 | 230076


Range status and errors

Selected range

Filename D:\.www.AvaxHome.ru\Iommi - Iommi (Japan VJCP-68261).wav

Peak level 99.8 %
Extraction speed 6.9 X
Range quality 99.9 %
Test CRC 6B651479
Copy CRC 6B651479
Copy OK

No errors occurred


AccurateRip summary

Track 1 accurately ripped (confidence 2) [5803B8A6] (AR v2)
Track 2 accurately ripped (confidence 2) [5BD49E44] (AR v2)
Track 3 accurately ripped (confidence 2) [1BC07158] (AR v2)
Track 4 accurately ripped (confidence 2) [E61D38C0] (AR v2)
Track 5 accurately ripped (confidence 2) [32A714B1] (AR v2)
Track 6 accurately ripped (confidence 2) [E105A2B5] (AR v2)
Track 7 accurately ripped (confidence 2) [EDAB8FBE] (AR v2)
Track 8 accurately ripped (confidence 2) [253541B5] (AR v2)
Track 9 accurately ripped (confidence 2) [A11EE11B] (AR v2)
Track 10 accurately ripped (confidence 2) [78AC526D] (AR v2)

All tracks accurately ripped

End of status report

–– CUETools DB Plugin V2.1.4

[CTDB TOCID: _uONw_W3zV4DeOzhVW0WAyeITXY-] found
Submit result: _uONw_W3zV4DeOzhVW0WAyeITXY- has been confirmed
Track | CTDB Status
1 | (1/1) Accurately ripped
2 | (1/1) Accurately ripped
3 | (1/1) Accurately ripped
4 | (1/1) Accurately ripped
5 | (1/1) Accurately ripped
6 | (1/1) Accurately ripped
7 | (1/1) Accurately ripped
8 | (1/1) Accurately ripped
9 | (1/1) Accurately ripped
10 | (1/1) Accurately ripped


==== Log checksum 110EF21A3322E644FFB7F50A3803B7B68E952AC4E5481CBF4DF311C96827D37F ====

Executive produced - Ralph Baker
Produced, engineered and mixed by Bob Marlette
Lossless (FLAC)*
http://www.nitroflare.com/view/C98E0E64AFDD7BB/IO2000IOJAPLOS.rar

All Covers (PNG)
http://www.nitroflare.com/view/71543C56F2AC36B/IO2000IOJAPCOV.rar

Lossy HQ (320 Kbps CBR)
http://www.nitroflare.com/view/FC2A6FD89A609F8/IO2000IOJAPMP3.rar

* Original CD -> EAC image, embedded cuesheet & more, foobar2000 ready, etc.
(all CUEs, LOGs and other technical info includes in the internal "CD_Support" archive).

Please, do not write these links at any web pages. Enjoy & keep the files alive!