Subcategories

Ludvig Irgens-Jensen - Symphonic Works (Trondheim Symphony, Adaland)

Posted By: tapaz9
Ludvig Irgens-Jensen - Symphonic Works (Trondheim Symphony, Adaland)

Ludvig Irgens-Jensen - Symphonic Works (Trondheim Symphony, Adaland)
Classical | EAC: FLAC+Cue+Log | 2 Cd, Covers | 569 Mb
Label: CPO - Date: 2012

Ludvig Irgens Jensen is a composer barely known outside his native Norway. It is a fate he shares with many Scandinavian composers of his generation, including Kurt Atterberg, a composer cpo has worked hard to revive. Here is a release of Irgens Jensen's major orchestral works with the formidable Trondheim Orchestra, proving he is a composer worthy of the attention enjoyed by his contemporaries Sibelius and Carl Nielsen.
Tracks CD 1:

01. Tema con variazioni - Thema [0:02:44.07]
02. Sostenuto ed espressivo [0:02:05.60]
03. Allegretto grazioso [0:01:24.30]
04. Poco mosso ed agitato [0:01:07.00]
05. Tranquillo [0:01:26.72]
06. Allegro, un poco burlesco [0:01:26.43]
07. Allegro enfatico [0:01:35.50]
08. Andante espressivo [0:01:16.73]
09. Vivace [0:00:58.24]
10. Presto giocoso [0:01:01.55]
11. Pesante, tempo moderato [0:01:27.60]
12. Mesto, poco rubato [0:01:16.56]
13. Allegro molto [0:01:55.05]
14. Grave [0:01:22.26]
15. Molto mosso [0:00:26.07]
16. Allegro energico [0:00:38.73]
17. Allegro animato [0:03:04.34]
18. Partita Sinfonica - I. Prelude [0:05:21.00]
19. II. Bol's Song [0:02:46.00]
20. III. Presto con fuoco [0:04:56.00]
21. IV. Epilogue [0:04:18.00]
22. Air [0:03:06.00]
23. Kong Baldvines Armring Suite - I. Scherzo [0:01:46.00]
24. II. Intermezzo [0:04:33.00]
25. III. Galgeberget, Andante misterioso [0:02:02.00]
26. IV. Ballet [0:04:54.68]

Tracks CD 2:

01. Symphony in D minor - I. Allegro [0:16:30.00]
02. II. Andante [0:11:51.00]
03. Rondo marziale [0:15:14.00]
04. Passacaglia [0:20:23.68]


Exact Audio Copy V1.0 beta 3 from 29. August 2011

EAC extraction logfile from 31. January 2013, 0:25

Ludvig Irgens-Jensen / Symphonic Works CD 1(Trondheim Symphony, Adaland)

Used drive : TSSTcorpCDDVDW SH-S223C Adapter: 2 ID: 1

Read mode : Secure
Utilize accurate stream : Yes
Defeat audio cache : Yes
Make use of C2 pointers : No

Read offset correction : 697
Overread into Lead-In and Lead-Out : No
Fill up missing offset samples with silence : Yes
Delete leading and trailing silent blocks : No
Null samples used in CRC calculations : Yes
Used interface : Native Win32 interface for Win NT & 2000

Used output format : User Defined Encoder
Selected bitrate : 896 kBit/s
Quality : High
Add ID3 tag : No
Command line compressor : C:\Program Files (x86)\Exact Audio Copy\FLAC\FLAC.EXE
Additional command line options : -V -0 -T "COMMENT=Ripped by Tapaz9" -T "artist=%artist%" -T "title=%title%" -T "album=%albumtitle%" -T "date=%year%" -T "tracknumber=%tracknr%" -T "genre=%genre%" %source%


TOC of the extracted CD

Track | Start | Length | Start sector | End sector
––––––––––––––––––––––––––––-
1 | 0:00.00 | 2:44.07 | 0 | 12306
2 | 2:44.07 | 2:05.60 | 12307 | 21741
3 | 4:49.67 | 1:24.30 | 21742 | 28071
4 | 6:14.22 | 1:07.00 | 28072 | 33096
5 | 7:21.22 | 1:26.72 | 33097 | 39618
6 | 8:48.19 | 1:26.43 | 39619 | 46111
7 | 10:14.62 | 1:35.50 | 46112 | 53286
8 | 11:50.37 | 1:16.73 | 53287 | 59059
9 | 13:07.35 | 0:58.24 | 59060 | 63433
10 | 14:05.59 | 1:01.55 | 63434 | 68063
11 | 15:07.39 | 1:27.60 | 68064 | 74648
12 | 16:35.24 | 1:16.56 | 74649 | 80404
13 | 17:52.05 | 1:55.05 | 80405 | 89034
14 | 19:47.10 | 1:22.26 | 89035 | 95210
15 | 21:09.36 | 0:26.07 | 95211 | 97167
16 | 21:35.43 | 0:38.73 | 97168 | 100090
17 | 22:14.41 | 3:04.34 | 100091 | 113924
18 | 25:19.00 | 5:21.00 | 113925 | 137999
19 | 30:40.00 | 2:46.00 | 138000 | 150449
20 | 33:26.00 | 4:56.00 | 150450 | 172649
21 | 38:22.00 | 4:18.00 | 172650 | 191999
22 | 42:40.00 | 3:06.00 | 192000 | 205949
23 | 45:46.00 | 1:46.00 | 205950 | 213899
24 | 47:32.00 | 4:33.00 | 213900 | 234374
25 | 52:05.00 | 2:02.00 | 234375 | 243524
26 | 54:07.00 | 4:54.68 | 243525 | 265642


Range status and errors

Selected range

Filename F:\Musique\Irgens-Jensen, Ludvig\Irgens_Jensen_SymphonicWorks\CD 1\Ludvig Irgens-Jensen - Symphonic Works CD 1(Trondheim Symphony, Adaland).wav

Peak level 99.3 %
Extraction speed 14.6 X
Range quality 100.0 %
Copy CRC DB662B80
Copy OK

No errors occurred

End of status report

==== Log checksum E3B227707162BA168C7ED913C49CB18EDCC9B57C6B5DE9C26C3B2CDB9CE04C01 ====



Exact Audio Copy V1.0 beta 3 from 29. August 2011

EAC extraction logfile from 31. January 2013, 0:36

Ludvig Irgens-Jensen / Symphonic Works CD 2 (Trondheim Symphony, Adaland)

Used drive : TSSTcorpCDDVDW SH-S223C Adapter: 2 ID: 1

Read mode : Secure
Utilize accurate stream : Yes
Defeat audio cache : Yes
Make use of C2 pointers : No

Read offset correction : 697
Overread into Lead-In and Lead-Out : No
Fill up missing offset samples with silence : Yes
Delete leading and trailing silent blocks : No
Null samples used in CRC calculations : Yes
Used interface : Native Win32 interface for Win NT & 2000

Used output format : User Defined Encoder
Selected bitrate : 896 kBit/s
Quality : High
Add ID3 tag : No
Command line compressor : C:\Program Files (x86)\Exact Audio Copy\FLAC\FLAC.EXE
Additional command line options : -V -0 -T "COMMENT=Ripped by Tapaz9" -T "artist=%artist%" -T "title=%title%" -T "album=%albumtitle%" -T "date=%year%" -T "tracknumber=%tracknr%" -T "genre=%genre%" %source%


TOC of the extracted CD

Track | Start | Length | Start sector | End sector
––––––––––––––––––––––––––––-
1 | 0:00.00 | 16:30.00 | 0 | 74249
2 | 16:30.00 | 11:51.00 | 74250 | 127574
3 | 28:21.00 | 15:14.00 | 127575 | 196124
4 | 43:35.00 | 20:23.68 | 196125 | 287917


Range status and errors

Selected range

Filename F:\Musique\Irgens-Jensen, Ludvig\Irgens_Jensen_SymphonicWorks\CD 2\Ludvig Irgens-Jensen - Symphonic Works CD 2 (Trondheim Symphony, Adaland).wav

Peak level 99.1 %
Extraction speed 15.0 X
Range quality 99.9 %
Copy CRC C72D01A1
Copy OK

No errors occurred

End of status report

==== Log checksum E1263B27CD6C60D989307BA35DB20777BDEC356CBDFB18E044D961E134902FEB ====

No Mirrors and Torrent-uploads Please

See my classical digital download posts in the Vinyl & HR section or check out My Avax blog