Subcategories

Iron Maiden - 10 Albums (1980-1992) [2CD Limited Editions 1995]

Posted By: gribovar
Iron Maiden - 10 Albums (1980-1992) [2CD Limited Editions 1995]

Iron Maiden - 10 Albums (1980-1992) [2CD Limited Editions 1995]
EAC Rip | FLAC (image+.cue+log) - 4,58 GB | MP3 CBR 320 kbps (LAME 3.93) - 1,59 GB | Covers - 788 MB
Genre: Heavy Metal | RAR 3% Rec. | Label: EMI

Iron Maiden limited edition collection releases come out in Europe in 1995. All stickers have the same identifier: MAIDCAT10, containing 2 CDs: album and bonus disc with b-side tracks from the singles of that album.
Known for such powerful hits as "Two Minutes to Midnight" and "The Trooper," Iron Maiden are one of heavy metal's most influential bands. They're also one of metal's most enduring and distinctive acts, thanks to their melodic guitars, ambitious songwriting, powerhouse vocalist Bruce Dickinson, and iconic mascot Eddie. One of the first groups to be classified as "British metal," Iron Maiden helped set the rock scene for the '80s and inspired generations of subsequent bands, including Metallica, Dream Theater, Slipknot, In Flames, and Avenged Sevenfold. Despite a lack of radio airplay or mainstream media support, early allegations of Satanism, and a revolving lineup, they have remained consistently popular throughout their career.

Iron Maiden - 10 Albums (1980-1992) [2CD Limited Editions 1995]

Iron Maiden - Iron Maiden (1980) [2CD Limited Edition 1995]
EAC Rip | FLAC (image+.cue+log) - 357 MB | MP3 CBR 320 kbps (LAME 3.93) - 124 MB | Covers - 40 MB
Genre: Heavy Metal | RAR 3% Rec. | Label: EMI (7243 8 35868 2 0)

CD 1 Tracklist:
01. Prowler
02. Remember Tomorrow
03. Running Free
04. Phantom of the Opera
05. Transylvania
06. Strange World
07. Charlotte the Harlot
08. Iron Maiden

Total time: 37:40

CD 2 Tracklist:
01. Sanctuary
02. Burning Ambition
03. Drifter (Live)
04. I've Got the Fire (Live)

Total time: 15:15

Exact Audio Copy V1.0 beta 3 from 29. August 2011

EAC extraction logfile from 3. March 2013, 17:11

Iron Maiden / Iron Maiden (7243 8 35868 2 0, CD1)

Used drive : PLEXTOR DVDR PX-612U Adapter: 1 ID: 0

Read mode : Secure
Utilize accurate stream : Yes
Defeat audio cache : Yes
Make use of C2 pointers : No

Read offset correction : 6
Overread into Lead-In and Lead-Out : No
Fill up missing offset samples with silence : Yes
Delete leading and trailing silent blocks : No
Null samples used in CRC calculations : Yes
Used interface : Installed external ASPI interface

Used output format : User Defined Encoder
Selected bitrate : 1024 kBit/s
Quality : High
Add ID3 tag : No
Command line compressor : C:\Program Files (x86)\Exact Audio Copy 1.0b3\Flac\flac.exe
Additional command line options : -V -8 -T "Date=%year%" -T "Genre=%genre%" %source%


TOC of the extracted CD

Track | Start | Length | Start sector | End sector
––––––––––––––––––––––––––––-
1 | 0:00.33 | 3:55.20 | 33 | 17677
2 | 3:55.53 | 5:27.60 | 17678 | 42262
3 | 9:23.38 | 3:17.05 | 42263 | 57042
4 | 12:40.43 | 7:20.50 | 57043 | 90092
5 | 20:01.18 | 4:05.12 | 90093 | 108479
6 | 24:06.30 | 5:46.15 | 108480 | 134444
7 | 29:52.45 | 4:12.55 | 134445 | 153399
8 | 34:05.25 | 3:34.43 | 153400 | 169492


Range status and errors

Selected range

Filename D:\Ripped By liveevil\Iron Maiden - Iron Maiden (7243 8 35868 2 0, CD1).wav

Peak level 93.3 %
Extraction speed 2.7 X
Range quality 99.9 %
Test CRC 76C00D4D
Copy CRC 76C00D4D
Copy OK

No errors occurred


AccurateRip summary

Track 1 accurately ripped (confidence 4) [0BCCD8D7] (AR v2)
Track 2 accurately ripped (confidence 4) [8F77EA93] (AR v2)
Track 3 accurately ripped (confidence 4) [02F27726] (AR v2)
Track 4 accurately ripped (confidence 4) [AFD3A11B] (AR v2)
Track 5 accurately ripped (confidence 4) [2F72C505] (AR v2)
Track 6 accurately ripped (confidence 3) [04E5225E] (AR v2)
Track 7 accurately ripped (confidence 3) [3AD78F6D] (AR v2)
Track 8 accurately ripped (confidence 3) [A3172469] (AR v2)

All tracks accurately ripped

End of status report

==== Log checksum A8F794F1D0176A3B09FDCEDF5DC1FBC58677D768C27FC657191482152EA43019 ====

[CUETools log; Date: 10.05.2019 18:44:30; Version: 2.1.4]
Pregap length 00:00:33.
[CTDB TOCID: ME_Fd4IGk6U3wmwmdKbgPj2bsCg-] found.
Track | CTDB Status
1 | (203/477) Accurately ripped
2 | (203/477) Accurately ripped
3 | (203/477) Accurately ripped
4 | (201/477) Accurately ripped
5 | (200/477) Accurately ripped
6 | (203/477) Accurately ripped
7 | (196/477) Accurately ripped
8 | (203/477) Accurately ripped
[AccurateRip ID: 000bcb40-004f1fa7-6608d308] found.
Track [ CRC | V2 ] Status
01 [eaf939c1|0bccd8d7] (017+058/414) Accurately ripped
02 [5d076d0e|8f77ea93] (018+055/414) Accurately ripped
03 [6618672c|02f27726] (018+057/418) Accurately ripped
04 [f254c841|afd3a11b] (018+056/415) Accurately ripped
05 [d9da43bb|2f72c505] (017+057/418) Accurately ripped
06 [b0d96116|04e5225e] (017+056/415) Accurately ripped
07 [87725cbd|3ad78f6d] (017+055/413) Accurately ripped
08 [098acbe7|a3172469] (017+056/415) Accurately ripped
Offsetted by 197:
01 [6ce12e94] (041/414) Accurately ripped
02 [49c8f169] (041/414) Accurately ripped
03 [b453ea6f] (041/418) Accurately ripped
04 [842489fe] (041/415) Accurately ripped
05 [898a85ef] (041/418) Accurately ripped
06 [843175cb] (041/415) Accurately ripped
07 [6d4e17cc] (041/413) Accurately ripped
08 [93c26675] (040/415) Accurately ripped

Track Peak [ CRC32 ] [W/O NULL] [ LOG ]
– 93,3 [76C00D4D] [2F6032F7] CRC32
01 93,3 [6CF7283F] [DCE2B6D2]
02 93,3 [D17C4A11] [020E1907]
03 93,3 [5EFB103A] [D3F115B4]
04 93,3 [E89236DD] [7759716B]
05 93,3 [DE10451E] [DD23E1D3]
06 93,3 [AE491B96] [3D5A09F4]
07 93,3 [D8C6B986] [53AC423C]
08 93,3 [3E005B62] [60DC8610]

Exact Audio Copy V1.0 beta 3 from 29. August 2011

EAC extraction logfile from 3. March 2013, 17:39

Iron Maiden / Iron Maiden (7243 8 35868 2 0, CD2)

Used drive : PLEXTOR DVDR PX-612U Adapter: 1 ID: 0

Read mode : Secure
Utilize accurate stream : Yes
Defeat audio cache : Yes
Make use of C2 pointers : No

Read offset correction : 6
Overread into Lead-In and Lead-Out : No
Fill up missing offset samples with silence : Yes
Delete leading and trailing silent blocks : No
Null samples used in CRC calculations : Yes
Used interface : Installed external ASPI interface

Used output format : User Defined Encoder
Selected bitrate : 1024 kBit/s
Quality : High
Add ID3 tag : No
Command line compressor : C:\Program Files (x86)\Exact Audio Copy 1.0b3\Flac\flac.exe
Additional command line options : -V -8 -T "Date=%year%" -T "Genre=%genre%" %source%


TOC of the extracted CD

Track | Start | Length | Start sector | End sector
––––––––––––––––––––––––––––-
1 | 0:00.33 | 3:15.22 | 33 | 14679
2 | 3:15.55 | 2:41.50 | 14680 | 26804
3 | 5:57.30 | 6:03.70 | 26805 | 54099
4 | 12:01.25 | 3:13.43 | 54100 | 68617


Range status and errors

Selected range

Filename D:\Ripped By liveevil\Iron Maiden - Iron Maiden (7243 8 35868 2 0, CD2).wav

Peak level 97.8 %
Extraction speed 1.3 X
Range quality 99.9 %
Test CRC 4016A060
Copy CRC 4016A060
Copy OK

No errors occurred


AccurateRip summary

Track 1 accurately ripped (confidence 4) [F76B92F8] (AR v2)
Track 2 accurately ripped (confidence 4) [B31B8EB8] (AR v2)
Track 3 accurately ripped (confidence 4) [9713EC1C] (AR v2)
Track 4 accurately ripped (confidence 4) [E6E1458B] (AR v2)

All tracks accurately ripped

End of status report

==== Log checksum A756B3FAED197FF69583D38803D0CD447A601A5408C767292D8D6D5A531F0176 ====

[CUETools log; Date: 10.05.2019 18:44:51; Version: 2.1.4]
Pregap length 00:00:33.
[CTDB TOCID: IlVv5c6x45LzVVLr1cOIDNo8a10-] found.
Track | CTDB Status
1 | (50/50) Accurately ripped
2 | (50/50) Accurately ripped
3 | (50/50) Accurately ripped
4 | (50/50) Accurately ripped
[AccurateRip ID: 0002818c-000a3672-30039204] found.
Track [ CRC | V2 ] Status
01 [6ce99f9d|f76b92f8] (14+52/66) Accurately ripped
02 [072e229b|b31b8eb8] (14+52/66) Accurately ripped
03 [6824b1df|9713ec1c] (14+52/66) Accurately ripped
04 [694e576e|e6e1458b] (14+52/66) Accurately ripped

Track Peak [ CRC32 ] [W/O NULL] [ LOG ]
– 97,8 [4016A060] [89E14B00] CRC32
01 97,8 [66847C33] [CBD51A52]
02 94,1 [BC6B2626] [2EE3C51A]
03 80,4 [F9963A58] [4FE54808]
04 86,0 [B197B013] [429FE8AC]

Iron Maiden - 10 Albums (1980-1992) [2CD Limited Editions 1995]

Iron Maiden - Killers (1981) [2CD Limited Edition 1995]
EAC Rip | FLAC (image+.cue+log) - 369 MB | MP3 CBR 320 kbps (LAME 3.93) - 128 MB | Covers - 42 MB
Genre: Heavy Metal | RAR 3% Rec. | Label: EMI (7243 8 35869 2 9)

CD 1 Tracklist:
01. The Ides Of March
02. Wrathchild
03. Murders In The Rue Morgue
04. Another Life
05. Genghis Khan
06. Innocent Exile
07. Killers
08. Prodigal Son
09. Purgatory
10. Drifter

Total time: 38:43

CD 2 Tracklist:
01. Twilight Zone
02. Women In Uniform
03. Invasion
04. Phantom Of The Opera (Live)

Total time: 15:37

Exact Audio Copy V1.0 beta 3 from 29. August 2011

EAC extraction logfile from 3. March 2013, 18:30

Iron Maiden / Killers (7243 8 35869 2 9, CD1)

Used drive : PLEXTOR DVDR PX-612U Adapter: 1 ID: 0

Read mode : Secure
Utilize accurate stream : Yes
Defeat audio cache : Yes
Make use of C2 pointers : No

Read offset correction : 6
Overread into Lead-In and Lead-Out : No
Fill up missing offset samples with silence : Yes
Delete leading and trailing silent blocks : No
Null samples used in CRC calculations : Yes
Used interface : Installed external ASPI interface

Used output format : User Defined Encoder
Selected bitrate : 1024 kBit/s
Quality : High
Add ID3 tag : No
Command line compressor : C:\Program Files (x86)\Exact Audio Copy 1.0b3\Flac\flac.exe
Additional command line options : -V -8 -T "Date=%year%" -T "Genre=%genre%" %source%


TOC of the extracted CD

Track | Start | Length | Start sector | End sector
––––––––––––––––––––––––––––-
1 | 0:00.32 | 1:45.63 | 32 | 7969
2 | 1:46.20 | 2:54.30 | 7970 | 21049
3 | 4:40.50 | 4:18.22 | 21050 | 40421
4 | 8:58.72 | 3:22.73 | 40422 | 55644
5 | 12:21.70 | 3:07.05 | 55645 | 69674
6 | 15:29.00 | 3:52.32 | 69675 | 87106
7 | 19:21.32 | 5:00.65 | 87107 | 109671
8 | 24:22.22 | 6:12.20 | 109672 | 137591
9 | 30:34.42 | 3:20.05 | 137592 | 152596
10 | 33:54.47 | 4:48.50 | 152597 | 174246


Range status and errors

Selected range

Filename D:\Ripped By liveevil\Iron Maiden - Killers (7243 8 35869 2 9, CD1).wav

Peak level 98.0 %
Extraction speed 1.7 X
Range quality 100.0 %
Test CRC EF6E0D6D
Copy CRC EF6E0D6D
Copy OK

No errors occurred


AccurateRip summary

Track 1 accurately ripped (confidence 3) [FFFAD9A0] (AR v2)
Track 2 accurately ripped (confidence 3) [26B5A387] (AR v2)
Track 3 accurately ripped (confidence 3) [575DFAD7] (AR v2)
Track 4 accurately ripped (confidence 3) [91D2B5D3] (AR v2)
Track 5 accurately ripped (confidence 3) [974BF99F] (AR v2)
Track 6 accurately ripped (confidence 3) [4F663AC4] (AR v2)
Track 7 accurately ripped (confidence 3) [650A9AA9] (AR v2)
Track 8 accurately ripped (confidence 3) [6B017FF5] (AR v2)
Track 9 accurately ripped (confidence 3) [17644484] (AR v2)
Track 10 accurately ripped (confidence 3) [1A981D20] (AR v2)

All tracks accurately ripped

End of status report

==== Log checksum E91F1144DB77BD23AB1BE05DEF91DA17FBDC41ED160631E4870DF6E0A2B8057E ====

[CUETools log; Date: 10.05.2019 18:45:19; Version: 2.1.4]
Pregap length 00:00:32.
[CTDB TOCID: x0EG7SCcp_M0cPDj7jbwzYVQHns-] found.
Track | CTDB Status
1 | (487/501) Accurately ripped
2 | (488/501) Accurately ripped
3 | (490/501) Accurately ripped
4 | (493/501) Accurately ripped
5 | (493/501) Accurately ripped
6 | (488/501) Accurately ripped
7 | (485/501) Accurately ripped
8 | (478/501) Accurately ripped
9 | (488/501) Accurately ripped
10 | (490/501) Accurately ripped
[AccurateRip ID: 000d0fc9-006c6ac9-7209130a] found.
Track [ CRC | V2 ] Status
01 [2c3ade91|fffad9a0] (022+053/430) Accurately ripped
02 [fd485f48|26b5a387] (022+055/433) Accurately ripped
03 [15b5e95d|575dfad7] (022+054/430) Accurately ripped
04 [74f36a29|91d2b5d3] (022+054/429) Accurately ripped
05 [5c7e68db|974bf99f] (022+054/429) Accurately ripped
06 [17d171ee|4f663ac4] (021+054/428) Accurately ripped
07 [3a8c74f2|650a9aa9] (022+054/426) Accurately ripped
08 [a8f5436f|6b017ff5] (022+054/424) Accurately ripped
09 [387e0200|17644484] (022+054/430) Accurately ripped
10 [f7e9eb14|1a981d20] (022+054/424) Accurately ripped
Offsetted by -1502:
01 [fe25c5af] (004/430) Accurately ripped
02 [fc1d29e4] (004/433) Accurately ripped
03 [c3d96923] (004/430) Accurately ripped
04 [a69dea1d] (004/429) Accurately ripped
05 [82d3b963] (004/429) Accurately ripped
06 [7e00173c] (004/428) Accurately ripped
07 [f3e7a1d4] (004/426) Accurately ripped
08 [794c1fa3] (004/424) Accurately ripped
09 [f07a220e] (004/430) Accurately ripped
10 [87cb58a0] (004/424) Accurately ripped
Offsetted by 381:
01 [9f5c14ea] (026/430) Accurately ripped
02 [e8dade88] (026/433) Accurately ripped
03 [57217cc4] (026/430) Accurately ripped
04 [986a981b] (026/429) Accurately ripped
05 [09fe12cf] (026/429) Accurately ripped
06 [8ce5a7c9] (025/428) Accurately ripped
07 [2412fc4f] (025/426) Accurately ripped
08 [68853d01] (024/424) Accurately ripped
09 [fd0a11bb] (026/430) Accurately ripped
10 [a71a3ce2] (025/424) Accurately ripped
Offsetted by 532:
01 [0a3cc221] (034/430) Accurately ripped
02 [2051e06c] (034/433) Accurately ripped
03 [facd2159] (034/430) Accurately ripped
04 [5de7c531] (034/429) Accurately ripped
05 [e69b812b] (034/429) Accurately ripped
06 [9e67f43a] (034/428) Accurately ripped
07 [ca897a86] (033/426) Accurately ripped
08 [e6d5d0f7] (033/424) Accurately ripped
09 [3a2357cc] (034/430) Accurately ripped
10 [3519e70c] (034/424) Accurately ripped
Offsetted by 549:
01 [f4cb7e73] (002/430) Accurately ripped
02 [48edffc7] (002/433) Accurately ripped
03 [e2d7fa3c] (002/430) Accurately ripped
04 [ac16132b] (002/429) Accurately ripped
05 [2822356f] (002/429) Accurately ripped
06 [4b9bebe1] (002/428) Accurately ripped
07 [e5c133f7] (002/426) Accurately ripped
08 [1dbead11] (002/424) Accurately ripped
09 [33742cd3] (002/430) Accurately ripped
10 [f051cfd2] (002/424) Accurately ripped
Offsetted by 852:
01 [79403841] (019/430) Accurately ripped
02 [deab192c] (019/433) Accurately ripped
03 [ec8a4119] (019/430) Accurately ripped
04 [b42235b1] (019/429) Accurately ripped
05 [99ec862b] (019/429) Accurately ripped
06 [f14938fa] (019/428) Accurately ripped
07 [d9edb3c6] (019/426) Accurately ripped
08 [d24f6977] (018/424) Accurately ripped
09 [7105d48c] (019/430) Accurately ripped
10 [8fcce68c] (019/424) Accurately ripped
Offsetted by 861:
01 [ab545ece] (074/430) Accurately ripped
02 [03286e74] (075/433) Accurately ripped
03 [c1bd2c64] (075/430) Accurately ripped
04 [19c240db] (074/429) Accurately ripped
05 [16f79a4f] (074/429) Accurately ripped
06 [89378ee9] (074/428) Accurately ripped
07 [bb29522f] (074/426) Accurately ripped
08 [49bba1c1] (074/424) Accurately ripped
09 [4f5dccdb] (074/430) Accurately ripped
10 [2f26bc22] (071/424) Accurately ripped

Track Peak [ CRC32 ] [W/O NULL] [ LOG ]
– 98,0 [EF6E0D6D] [972C20DB] CRC32
01 85,8 [DC5519BF] [913AD9BD]
02 96,6 [78A1C35C] [7AE8A126]
03 86,4 [E4AD2B9B] [98194821]
04 91,1 [EDDE4260] [3D390B99]
05 82,3 [AF74B9DA] [389FCC05]
06 92,3 [82B004FA] [5118CCEB]
07 98,0 [AAD4BE08] [3E416452]
08 76,2 [068BE66C] [C2F8C265]
09 75,1 [83E3F768] [AF679871]
10 87,8 [F6D75069] [D95429D8]

Exact Audio Copy V1.0 beta 3 from 29. August 2011

EAC extraction logfile from 3. March 2013, 19:02

Iron Maiden / Killers (7243 8 35869 2 9, CD2)

Used drive : PLEXTOR DVDR PX-612U Adapter: 1 ID: 0

Read mode : Secure
Utilize accurate stream : Yes
Defeat audio cache : Yes
Make use of C2 pointers : No

Read offset correction : 6
Overread into Lead-In and Lead-Out : No
Fill up missing offset samples with silence : Yes
Delete leading and trailing silent blocks : No
Null samples used in CRC calculations : Yes
Used interface : Installed external ASPI interface

Used output format : User Defined Encoder
Selected bitrate : 1024 kBit/s
Quality : High
Add ID3 tag : No
Command line compressor : C:\Program Files (x86)\Exact Audio Copy 1.0b3\Flac\flac.exe
Additional command line options : -V -8 -T "Date=%year%" -T "Genre=%genre%" %source%


TOC of the extracted CD

Track | Start | Length | Start sector | End sector
––––––––––––––––––––––––––––-
1 | 0:00.33 | 2:36.02 | 33 | 11734
2 | 2:36.35 | 3:10.10 | 11735 | 25994
3 | 5:46.45 | 2:39.05 | 25995 | 37924
4 | 8:25.50 | 7:11.28 | 37925 | 70277


Range status and errors

Selected range

Filename D:\Ripped By liveevil\Iron Maiden - Killers (7243 8 35869 2 9, CD2).wav

Peak level 100.0 %
Extraction speed 1.4 X
Range quality 100.0 %
Test CRC 775DD5D0
Copy CRC 775DD5D0
Copy OK

No errors occurred


AccurateRip summary

Track 1 accurately ripped (confidence 3) [1F2CB453] (AR v2)
Track 2 accurately ripped (confidence 3) [37CDDA3D] (AR v2)
Track 3 accurately ripped (confidence 3) [3EABAB91] (AR v2)
Track 4 accurately ripped (confidence 3) [064AB7CB] (AR v2)

All tracks accurately ripped

End of status report

==== Log checksum 569C51A3B02C05DD03AB907011872E5C9C0B9B1CB532C052ED398BE6196E2B25 ====

[CUETools log; Date: 10.05.2019 18:45:51; Version: 2.1.4]
Pregap length 00:00:33.
[CTDB TOCID: LTOVTz.g_3HKSkRvmi4FCzOShlY-] found.
Track | CTDB Status
1 | (60/60) Accurately ripped
2 | (59/60) Accurately ripped
3 | (60/60) Accurately ripped
4 | (60/60) Accurately ripped
[AccurateRip ID: 00023a2e-000939a2-2b03a904] found.
Track [ CRC | V2 ] Status
01 [312e87bf|1f2cb453] (22+52/74) Accurately ripped
02 [ff260022|37cdda3d] (22+52/74) Accurately ripped
03 [6d864d0a|3eabab91] (22+52/74) Accurately ripped
04 [bb891907|064ab7cb] (22+52/74) Accurately ripped

Track Peak [ CRC32 ] [W/O NULL] [ LOG ]
– 100,0 [775DD5D0] [6A5F09E4] CRC32
01 95,8 [935A28C2] [53CB26F4]
02 87,0 [C4D42C44] [4E60DA43]
03 100,0 [CC716580] [E205FA3D]
04 92,0 [8F741E3E] [EB6419ED]

Iron Maiden - 10 Albums (1980-1992) [2CD Limited Editions 1995]

Iron Maiden - The Number Of The Beast (1982) [2CD Limited Edition 1995]
EAC Rip | FLAC (image+.cue+log) - 337 MB | MP3 CBR 320 kbps (LAME 3.93) - 118 MB | Covers - 55 MB
Genre: Heavy Metal | RAR 3% Rec. | Label: EMI (7243 8 35870 2 5)

CD 1 Tracklist:
01. Invaders
02. Children Of The Damned
03. The Prisoner
04. 22 Acacia Avenue
05. The Number Of The Beast
06. Run To The Hills
07. Gangland
08. Hallowed Be Thy Name

Total time: 40:20

CD 2 Tracklist:
01. Total Eclipse
02. Remember Tomorrow (Live)

Total time: 09:58

Exact Audio Copy V1.0 beta 3 from 29. August 2011

EAC extraction logfile from 3. March 2013, 19:57

Iron Maiden / The Number Of The Beast (7243 8 35870 2 5, CD1)

Used drive : PLEXTOR DVDR PX-612U Adapter: 1 ID: 0

Read mode : Secure
Utilize accurate stream : Yes
Defeat audio cache : Yes
Make use of C2 pointers : No

Read offset correction : 6
Overread into Lead-In and Lead-Out : No
Fill up missing offset samples with silence : Yes
Delete leading and trailing silent blocks : No
Null samples used in CRC calculations : Yes
Used interface : Installed external ASPI interface

Used output format : User Defined Encoder
Selected bitrate : 1024 kBit/s
Quality : High
Add ID3 tag : No
Command line compressor : C:\Program Files (x86)\Exact Audio Copy 1.0b3\Flac\flac.exe
Additional command line options : -V -8 -T "Date=%year%" -T "Genre=%genre%" %source%


TOC of the extracted CD

Track | Start | Length | Start sector | End sector
––––––––––––––––––––––––––––-
1 | 0:00.33 | 3:23.42 | 33 | 15299
2 | 3:24.00 | 4:34.65 | 15300 | 35914
3 | 7:58.65 | 6:02.00 | 35915 | 63064
4 | 14:00.65 | 6:36.23 | 63065 | 92787
5 | 20:37.13 | 4:50.05 | 92788 | 114542
6 | 25:27.18 | 3:53.05 | 114543 | 132022
7 | 29:20.23 | 3:48.65 | 132023 | 149187
8 | 33:09.13 | 7:11.05 | 149188 | 181517


Range status and errors

Selected range

Filename D:\Ripped By liveevil\Iron Maiden - The Number Of The Beast (7243 8 35870 2 5, CD1).wav

Peak level 100.0 %
Extraction speed 1.7 X
Range quality 100.0 %
Test CRC 0ADF7541
Copy CRC 0ADF7541
Copy OK

No errors occurred


AccurateRip summary

Track 1 accurately ripped (confidence 5) [480A005F] (AR v2)
Track 2 accurately ripped (confidence 5) [A29A312A] (AR v2)
Track 3 accurately ripped (confidence 5) [5748C2F3] (AR v2)
Track 4 accurately ripped (confidence 4) [5EBFA3B0] (AR v2)
Track 5 accurately ripped (confidence 5) [E5ECB5E3] (AR v2)
Track 6 accurately ripped (confidence 5) [4A2CBE7D] (AR v2)
Track 7 accurately ripped (confidence 5) [AB2BEBBC] (AR v2)
Track 8 accurately ripped (confidence 5) [0DA7A475] (AR v2)

All tracks accurately ripped

End of status report

==== Log checksum 084556AACBF546CB674FE6679AD9184D56224D5CD78BAA08F1ED5040ED3993C3 ====

[CUETools log; Date: 10.05.2019 18:46:21; Version: 2.1.4]
Pregap length 00:00:33.
[CTDB TOCID: hRvpTW70FxFpsyysac4.pEF_Mgs-] found.
Track | CTDB Status
1 | (844/872) Accurately ripped
2 | (778/872) Accurately ripped, or (60/872) differs in 1362 samples @04:27:40-04:27:42
3 | (851/872) Accurately ripped
4 | (845/872) Accurately ripped
5 | (848/872) Accurately ripped
6 | (849/872) Accurately ripped
7 | (849/872) Accurately ripped
8 | (841/872) Accurately ripped
[AccurateRip ID: 000bf7f5-0050c46b-68097408] found.
Track [ CRC | V2 ] Status
01 [2b3d9620|480a005f] (027+056/671) Accurately ripped
02 [f93f5795|a29a312a] (027+055/676) Accurately ripped
03 [d88d042c|5748c2f3] (026+056/676) Accurately ripped
04 [1af19d97|5ebfa3b0] (027+055/674) Accurately ripped
05 [e3f85965|e5ecb5e3] (029+056/684) Accurately ripped
06 [05ad7c63|4a2cbe7d] (029+056/679) Accurately ripped
07 [5b1512fb|ab2bebbc] (028+056/672) Accurately ripped
08 [fe6375cf|0da7a475] (027+055/665) Accurately ripped
Offsetted by -944:
01 [06bf5bb0] (009/671) Accurately ripped
02 [808db8a5] (009/676) Accurately ripped
03 [1de2c04c] (009/676) Accurately ripped
04 [0f60e177] (009/674) Accurately ripped
05 [8b37d3b5] (009/684) Accurately ripped
06 [3eb30353] (009/679) Accurately ripped
07 [6944bdcb] (009/672) Accurately ripped
08 [48f14cbf] (009/665) Accurately ripped
Offsetted by -853:
01 [94072ff7] (016/671) Accurately ripped
02 [d0418e34] (016/676) Accurately ripped
03 [48d43fca] (016/676) Accurately ripped
04 [94d511f9] (016/674) Accurately ripped
05 [a19aa830] (016/684) Accurately ripped
06 [fc2f7f44] (016/679) Accurately ripped
07 [31647c3e] (016/672) Accurately ripped
08 [158d63b0] (016/665) Accurately ripped
Offsetted by -825:
01 [35a72283] (050/671) Accurately ripped
02 [c1653260] (050/676) Accurately ripped
03 [cc323fa2] (051/676) Accurately ripped
04 [f8f8d221] (052/674) Accurately ripped
05 [32569acc] (052/684) Accurately ripped
06 [0f1ab918] (052/679) Accurately ripped
07 [5b46de3a] (052/672) Accurately ripped
08 [caa9b984] (050/665) Accurately ripped
Offsetted by -787:
01 [7eb71041] (006/671) Accurately ripped
02 [6415912e] (005/676) Accurately ripped
03 [355663fe] (006/676) Accurately ripped
04 [6e970dc5] (006/674) Accurately ripped
05 [9b55ad32] (006/684) Accurately ripped
06 [4d59f54a] (005/679) Accurately ripped
07 [cafa1a10] (005/672) Accurately ripped
08 [2e2b9bb6] (005/665) Accurately ripped
Offsetted by -730:
01 [6c4ef4de] (008/671) Accurately ripped
02 [581e1f63] (008/676) Accurately ripped
03 [530c9a88] (008/676) Accurately ripped
04 [1f04673b] (008/674) Accurately ripped
05 [38d448cb] (008/684) Accurately ripped
06 [aab8cf95] (008/679) Accurately ripped
07 [7286f3d1] (008/672) Accurately ripped
08 [436e6f01] (008/665) Accurately ripped
Offsetted by -708:
01 [0fdeea4c] (078/671) Accurately ripped
02 [deba2061] (079/676) Accurately ripped
03 [4c8d5144] (077/676) Accurately ripped
04 [1245107f] (079/674) Accurately ripped
05 [e167f521] (079/684) Accurately ripped
06 [7071a197] (078/679) Accurately ripped
07 [a5b8d317] (076/672) Accurately ripped
08 [f64dd703] (078/665) Accurately ripped
Offsetted by -704:
01 [b93ee860] (033/671) Accurately ripped
02 [25bf37d5] (034/676) Accurately ripped
03 [a8762cac] (032/676) Accurately ripped
04 [b2dc7517] (033/674) Accurately ripped
05 [d182cea5] (033/684) Accurately ripped
06 [4e933c23] (033/679) Accurately ripped
07 [f4d92a3b] (031/672) Accurately ripped
08 [a276758f] (033/665) Accurately ripped
Offsetted by -638:
01 [a3eec8aa] (011/671) Accurately ripped
02 [b9933acf] (012/676) Accurately ripped
03 [94f850e0] (012/676) Accurately ripped
04 [8c9e70e3] (011/674) Accurately ripped
05 [cb3dd3a7] (012/684) Accurately ripped
06 [9fbdb229] (012/679) Accurately ripped
07 [8e6ec80d] (012/672) Accurately ripped
08 [bb14ad95] (009/665) Accurately ripped
Offsetted by 45:
01 [1cb58081] (027/671) Accurately ripped
02 [18389f6e] (026/676) Accurately ripped
03 [e288a87e] (027/676) Accurately ripped
04 [e998c945] (026/674) Accurately ripped
05 [b1266872] (025/684) Accurately ripped
06 [c8a7870a] (027/679) Accurately ripped
07 [1540e750] (027/672) Accurately ripped
08 [0f2c6d76] (026/665) Accurately ripped
Offsetted by -623:
01 [9f16c175] (019/671) Accurately ripped
02 [c3e652c2] (000/676) No match (V2 was not tested)
03 [eda187a6] (019/676) Accurately ripped
04 [26d62a1d] (020/674) Accurately ripped
05 [0fa28356] (019/684) Accurately ripped
06 [e0bbb5b6] (020/679) Accurately ripped
07 [77280ed4] (018/672) Accurately ripped
08 [c0ad0022] (020/665) Accurately ripped

Track Peak [ CRC32 ] [W/O NULL] [ LOG ]
– 100,0 [0ADF7541] [C0F8A78B] CRC32
01 87,1 [1DC55616] [939FB9F4]
02 100,0 [666B1243] [96B209BB]
03 93,5 [9496B097] [ACF25958]
04 84,5 [437A3B22] [58EB23D0]
05 99,5 [27D11456] [E016A16B]
06 97,3 [8D67BE3C] [BC67115F]
07 92,7 [75A65D12] [AF8AA63E]
08 87,4 [1568D591] [224ED3DC]

Exact Audio Copy V1.0 beta 3 from 29. August 2011

EAC extraction logfile from 3. March 2013, 20:16

Iron Maiden / The Number Of The Beast (7243 8 35870 2 5, CD2)

Used drive : PLEXTOR DVDR PX-612U Adapter: 1 ID: 0

Read mode : Secure
Utilize accurate stream : Yes
Defeat audio cache : Yes
Make use of C2 pointers : No

Read offset correction : 6
Overread into Lead-In and Lead-Out : No
Fill up missing offset samples with silence : Yes
Delete leading and trailing silent blocks : No
Null samples used in CRC calculations : Yes
Used interface : Installed external ASPI interface

Used output format : User Defined Encoder
Selected bitrate : 1024 kBit/s
Quality : High
Add ID3 tag : No
Command line compressor : C:\Program Files (x86)\Exact Audio Copy 1.0b3\Flac\flac.exe
Additional command line options : -V -8 -T "Date=%year%" -T "Genre=%genre%" %source%


TOC of the extracted CD

Track | Start | Length | Start sector | End sector
––––––––––––––––––––––––––––-
1 | 0:00.33 | 4:29.70 | 33 | 20277
2 | 4:30.28 | 5:27.25 | 20278 | 44827


Range status and errors

Selected range

Filename D:\Ripped By liveevil\Iron Maiden - The Number Of The Beast (7243 8 35870 2 5, CD2).wav

Peak level 99.6 %
Extraction speed 1.3 X
Range quality 100.0 %
Test CRC 2CD57929
Copy CRC 2CD57929
Copy OK

No errors occurred


AccurateRip summary

Track 1 accurately ripped (confidence 5) [E63F1910] (AR v2)
Track 2 accurately ripped (confidence 5) [98C7F9FA] (AR v2)

All tracks accurately ripped

End of status report

==== Log checksum 9FA0640661B26A675F56877EF8091189904C0830641B4802E82821234E7B1C43 ====

[CUETools log; Date: 10.05.2019 18:46:51; Version: 2.1.4]
Pregap length 00:00:33.
[CTDB TOCID: ky07hmVXasRjnwKqjPY43Sg8aGU-] found.
Track | CTDB Status
1 | (53/53) Accurately ripped
2 | (53/53) Accurately ripped
[AccurateRip ID: 0000fe73-0002abe1-0d025502] found.
Track [ CRC | V2 ] Status
01 [d2548522|e63f1910] (27+54/81) Accurately ripped
02 [695ee5ca|98c7f9fa] (26+53/79) Accurately ripped

Track Peak [ CRC32 ] [W/O NULL] [ LOG ]
– 99,6 [2CD57929] [E52EDC03] CRC32
01 99,6 [28A4B2C7] [7C129539]
02 99,3 [94356546] [361DC86C]

Iron Maiden - 10 Albums (1980-1992) [2CD Limited Editions 1995]

Iron Maiden - Piece Of Mind (1983) [2CD Limited Edition 1995]
EAC Rip | FLAC (image+.cue+log) - 352 MB | MP3 CBR 320 kbps (LAME 3.93) - 123 MB | Covers - 68 MB
Genre: Heavy Metal | RAR 3% Rec. | Label: EMI (7243 8 35871 2 4)

CD 1 Tracklist:
01. Where Eagles Dare
02. Revelations
03. Flight Of Icarus
04. Die With Your Boots On
05. The Trooper
06. Still Life
07. Quest For Fire
08. Sun And Steel
09. To Tame A Land

Total time: 46:02

CD 2 Tracklist:
01. I've Got the Fire
02. Cross Eyed Mary

Total time: 06:33

Exact Audio Copy V1.0 beta 3 from 29. August 2011

EAC extraction logfile from 8. March 2013, 19:37

Iron Maiden / Piece Of Mind (7243 8 35871 2 4, CD1)

Used drive : PLEXTOR DVDR PX-612U Adapter: 1 ID: 0

Read mode : Secure
Utilize accurate stream : Yes
Defeat audio cache : Yes
Make use of C2 pointers : No

Read offset correction : 6
Overread into Lead-In and Lead-Out : No
Fill up missing offset samples with silence : Yes
Delete leading and trailing silent blocks : No
Null samples used in CRC calculations : Yes
Used interface : Installed external ASPI interface

Used output format : User Defined Encoder
Selected bitrate : 1024 kBit/s
Quality : High
Add ID3 tag : No
Command line compressor : C:\Program Files (x86)\Exact Audio Copy 1.0b3\Flac\flac.exe
Additional command line options : -V -8 -T "Date=%year%" -T "Genre=%genre%" %source%


TOC of the extracted CD

Track | Start | Length | Start sector | End sector
––––––––––––––––––––––––––––-
1 | 0:00.33 | 6:12.45 | 33 | 27977
2 | 6:13.03 | 6:48.70 | 27978 | 58647
3 | 13:01.73 | 3:50.20 | 58648 | 75917
4 | 16:52.18 | 5:26.30 | 75918 | 100397
5 | 22:18.48 | 4:12.15 | 100398 | 119312
6 | 26:30.63 | 4:56.27 | 119313 | 141539
7 | 31:27.15 | 3:42.00 | 141540 | 158189
8 | 35:09.15 | 3:27.05 | 158190 | 173719
9 | 38:36.20 | 7:25.50 | 173720 | 207144


Range status and errors

Selected range

Filename D:\Ripped By liveevil\Iron Maiden - Piece Of Mind (7243 8 35871 2 4, CD1).wav

Peak level 83.1 %
Extraction speed 2.8 X
Range quality 99.9 %
Test CRC B9E858E8
Copy CRC B9E858E8
Copy OK

No errors occurred


AccurateRip summary

Track 1 accurately ripped (confidence 3) [4908340A] (AR v2)
Track 2 accurately ripped (confidence 3) [AFC8B5AE] (AR v2)
Track 3 accurately ripped (confidence 3) [F2AEBD2C] (AR v2)
Track 4 accurately ripped (confidence 3) [11F870CB] (AR v2)
Track 5 accurately ripped (confidence 3) [B9FD29BE] (AR v2)
Track 6 accurately ripped (confidence 3) [80C17987] (AR v2)
Track 7 accurately ripped (confidence 3) [58CE71AE] (AR v2)
Track 8 accurately ripped (confidence 3) [92208189] (AR v2)
Track 9 accurately ripped (confidence 3) [BC1F5EF0] (AR v2)

All tracks accurately ripped

End of status report

==== Log checksum 5D079F7781B8D6D852D423E777DD0D0EFAD51EFDBA49AA25ECB8F32247074768 ====

[CUETools log; Date: 10.05.2019 18:48:11; Version: 2.1.4]
Pregap length 00:00:33.
[CTDB TOCID: d_SUDO_lD5aIZamQktNJTUvuPZw-] found.
Track | CTDB Status
1 | ( 56/640) Accurately ripped
2 | ( 56/640) Accurately ripped
3 | ( 56/640) Accurately ripped
4 | ( 56/640) Accurately ripped
5 | ( 56/640) Accurately ripped
6 | ( 56/640) Accurately ripped
7 | ( 56/640) Accurately ripped
8 | ( 56/640) Accurately ripped
9 | ( 56/640) Accurately ripped
[AccurateRip ID: 001037e3-0074a61f-6f0ac909] found.
Track [ CRC | V2 ] Status
01 [e8abaead|4908340a] (018+051/402) Accurately ripped
02 [01903144|afc8b5ae] (019+051/400) Accurately ripped
03 [157444be|f2aebd2c] (018+051/406) Accurately ripped
04 [0cd90df1|11f870cb] (019+051/404) Accurately ripped
05 [4a3d914e|b9fd29be] (018+051/406) Accurately ripped
06 [08e6dcdb|80c17987] (018+051/401) Accurately ripped
07 [4a24dbdd|58ce71ae] (018+051/402) Accurately ripped
08 [c5f67291|92208189] (018+051/398) Accurately ripped
09 [3d28ecf6|bc1f5ef0] (018+051/395) Accurately ripped

Track Peak [ CRC32 ] [W/O NULL] [ LOG ]
– 83,1 [B9E858E8] [A1051277] CRC32
01 80,9 [21B732D9] [8BF4BF0B]
02 81,6 [814A2A8E] [2A920FAB]
03 83,1 [D4F4E66C] [4F41B198]
04 83,1 [20917DB2] [FFBAE3F8]
05 82,9 [B4598D00] [93CAAF1F]
06 83,1 [A135447C] [1FFBDD07]
07 83,1 [080F4ED9] [628328D0]
08 75,0 [E1BCF0EC] [292BF813]
09 78,7 [4E1C43AA] [1A4D9D3A]

Exact Audio Copy V1.0 beta 3 from 29. August 2011

EAC extraction logfile from 8. March 2013, 21:09

Iron Maiden / Piece Of Mind (7243 8 35871 2 4, CD2)

Used drive : PLEXTOR DVDR PX-612U Adapter: 1 ID: 0

Read mode : Secure
Utilize accurate stream : Yes
Defeat audio cache : Yes
Make use of C2 pointers : No

Read offset correction : 6
Overread into Lead-In and Lead-Out : No
Fill up missing offset samples with silence : Yes
Delete leading and trailing silent blocks : No
Null samples used in CRC calculations : Yes
Used interface : Installed external ASPI interface

Used output format : User Defined Encoder
Selected bitrate : 1024 kBit/s
Quality : High
Add ID3 tag : No
Command line compressor : C:\Program Files (x86)\Exact Audio Copy 1.0b3\Flac\flac.exe
Additional command line options : -V -8 -T "Date=%year%" -T "Genre=%genre%" %source%


TOC of the extracted CD

Track | Start | Length | Start sector | End sector
––––––––––––––––––––––––––––-
1 | 0:00.33 | 2:39.42 | 33 | 11999
2 | 2:40.00 | 3:53.30 | 12000 | 29504


Range status and errors

Selected range

Filename D:\Ripped By liveevil\Iron Maiden - Piece Of Mind (7243 8 35871 2 4, CD2).wav

Peak level 95.6 %
Extraction speed 1.1 X
Range quality 99.9 %
Test CRC AD79D7BE
Copy CRC AD79D7BE
Copy OK

No errors occurred


AccurateRip summary

Track 1 accurately ripped (confidence 3) [46F728FD] (AR v2)
Track 2 accurately ripped (confidence 3) [5DD1FF52] (AR v2)

All tracks accurately ripped

End of status report

==== Log checksum 97B850AD1D99C3830CACB3D40185635320F162932370C9899795F9DA91283863 ====

[CUETools log; Date: 10.05.2019 18:48:55; Version: 2.1.4]
Pregap length 00:00:33.
[CTDB TOCID: Q7fjen6jbZFMdh8PcLZ.butmVn4-] found.
Track | CTDB Status
1 | (49/49) Accurately ripped
2 | (49/49) Accurately ripped
[AccurateRip ID: 0000a242-0001b7a4-0b018902] found.
Track [ CRC | V2 ] Status
01 [f0cf5b5b|46f728fd] (20+50/70) Accurately ripped
02 [fbc9613e|5dd1ff52] (20+50/70) Accurately ripped

Track Peak [ CRC32 ] [W/O NULL] [ LOG ]
– 95,6 [AD79D7BE] [64E5DC12] CRC32
01 91,7 [BAF16B57] [DC706CBA]
02 95,6 [7DD5BA88] [C2334AF4]

Iron Maiden - 10 Albums (1980-1992) [2CD Limited Editions 1995]

Iron Maiden - Powerslave (1984) [2CD Limited Edition 1995]
EAC Rip | FLAC (image+.cue+log) - 469 MB | MP3 CBR 320 kbps (LAME 3.93) - 170 MB | Covers - 64 MB
Genre: Heavy Metal | RAR 3% Rec. | Label: EMI (7243 8 35872 2 3)

CD 1 Tracklist:
01. Aces High
02. 2 Minutes To Midnight
03. Losfer Words (Big 'Orra)
04. Flash Of The Blade
05. The Duellists
06. Back In The Village
07. Powerslave
08. Rime Of The Ancient Mariner

Total time: 50:59

CD 2 Tracklist:
01. Rainbow's Gold
02. Mission From 'Arry
03. King Of Twilight
04. Number Of The Beast (Live)

Total time: 21:30

Exact Audio Copy V1.0 beta 3 from 29. August 2011

EAC extraction logfile from 8. March 2013, 22:19

Iron Maiden / Powerslave (7243 8 35872 2 3, CD1)

Used drive : PLEXTOR DVDR PX-612U Adapter: 1 ID: 0

Read mode : Secure
Utilize accurate stream : Yes
Defeat audio cache : Yes
Make use of C2 pointers : No

Read offset correction : 6
Overread into Lead-In and Lead-Out : No
Fill up missing offset samples with silence : Yes
Delete leading and trailing silent blocks : No
Null samples used in CRC calculations : Yes
Used interface : Installed external ASPI interface

Used output format : User Defined Encoder
Selected bitrate : 1024 kBit/s
Quality : High
Add ID3 tag : No
Command line compressor : C:\Program Files (x86)\Exact Audio Copy 1.0b3\Flac\flac.exe
Additional command line options : -V -8 -T "Date=%year%" -T "Genre=%genre%" %source%


TOC of the extracted CD

Track | Start | Length | Start sector | End sector
––––––––––––––––––––––––––––-
1 | 0:00.32 | 4:32.43 | 32 | 20474
2 | 4:33.00 | 6:03.55 | 20475 | 47754
3 | 10:36.55 | 4:15.22 | 47755 | 66901
4 | 14:52.02 | 4:05.53 | 66902 | 85329
5 | 18:57.55 | 6:07.10 | 85330 | 112864
6 | 25:04.65 | 5:02.70 | 112865 | 135584
7 | 30:07.60 | 7:11.30 | 135585 | 167939
8 | 37:19.15 | 13:39.47 | 167940 | 229411


Range status and errors

Selected range

Filename D:\Ripped By liveevil\Iron Maiden - Powerslave (7243 8 35872 2 3, CD1).wav

Peak level 97.7 %
Extraction speed 1.9 X
Range quality 100.0 %
Test CRC E8C8CF3D
Copy CRC E8C8CF3D
Copy OK

No errors occurred


AccurateRip summary

Track 1 accurately ripped (confidence 3) [541FFBDA] (AR v2)
Track 2 accurately ripped (confidence 3) [03D59FAB] (AR v2)
Track 3 accurately ripped (confidence 19) [D893530A] (AR v1)
Track 4 accurately ripped (confidence 3) [3DCB4201] (AR v2)
Track 5 accurately ripped (confidence 3) [ADBE62B9] (AR v2)
Track 6 accurately ripped (confidence 3) [FB0A8FB1] (AR v2)
Track 7 accurately ripped (confidence 3) [D042F2D5] (AR v2)
Track 8 accurately ripped (confidence 3) [D7DC97A7] (AR v2)

All tracks accurately ripped

End of status report

==== Log checksum E2BCD8AF4508F4A15099019D89EAC90409D5F0DE3ABF63F7F726799243E1A638 ====

[CUETools log; Date: 10.05.2019 18:49:40; Version: 2.1.4]
Pregap length 00:00:32.
[CTDB TOCID: 2nT92ipNZKBF9eSlMcY_kNUDHDM-] found.
Track | CTDB Status
1 | ( 63/113) Accurately ripped
2 | ( 63/113) Accurately ripped
3 | ( 60/113) Accurately ripped
4 | ( 63/113) Accurately ripped
5 | ( 58/113) Accurately ripped, or (4/113) differs in 3 samples @02:06:72
6 | ( 60/113) Accurately ripped
7 | ( 61/113) Accurately ripped
8 | ( 61/113) Accurately ripped
[AccurateRip ID: 000d37f8-005a39ba-6b0bf208] found.
Track [ CRC | V2 ] Status
01 [96cd3054|541ffbda] (024+048/110) Accurately ripped
02 [4af536f1|03d59fab] (024+048/110) Accurately ripped
03 [d893530a|b9094102] (018+039/095) Accurately ripped
04 [e1516bd3|3dcb4201] (024+048/111) Accurately ripped
05 [67c99e32|adbe62b9] (024+048/111) Accurately ripped
06 [acde5871|fb0a8fb1] (024+047/110) Accurately ripped
07 [3ccce9b8|d042f2d5] (024+048/111) Accurately ripped
08 [14958597|d7dc97a7] (024+049/112) Accurately ripped
Offsetted by 3:
01 [a6f0ec20] (005/110) Accurately ripped
02 [5de982e0] (005/110) Accurately ripped
03 [5a1ac18a] (005/095) Accurately ripped
04 [b0c03acf] (005/111) Accurately ripped
05 [63845e72] (000/111) No match (V2 was not tested)
06 [e0fb2db5] (005/110) Accurately ripped
07 [532b3cb6] (005/111) Accurately ripped
08 [061fc42d] (005/112) Accurately ripped

Track Peak [ CRC32 ] [W/O NULL] [ LOG ]
– 97,7 [E8C8CF3D] [367E7672] CRC32
01 97,7 [A5367C67] [A8D30376]
02 97,7 [1E1A3388] [6376C602]
03 93,6 [62003422] [33BB8CCD]
04 97,7 [FA4022F8] [8AB300B6]
05 97,7 [BCBDAD97] [1E360093]
06 97,7 [B1CE3796] [8A8EE2B8]
07 97,7 [69BA0105] [0599439A]
08 97,7 [8FE2B17F] [BA5C50E0]

Exact Audio Copy V1.0 beta 3 from 29. August 2011

EAC extraction logfile from 8. March 2013, 23:01

Iron Maiden / Powerslave (7243 8 35872 2 3, CD2)

Used drive : PLEXTOR DVDR PX-612U Adapter: 1 ID: 0

Read mode : Secure
Utilize accurate stream : Yes
Defeat audio cache : Yes
Make use of C2 pointers : No

Read offset correction : 6
Overread into Lead-In and Lead-Out : No
Fill up missing offset samples with silence : Yes
Delete leading and trailing silent blocks : No
Null samples used in CRC calculations : Yes
Used interface : Installed external ASPI interface

Used output format : User Defined Encoder
Selected bitrate : 1024 kBit/s
Quality : High
Add ID3 tag : No
Command line compressor : C:\Program Files (x86)\Exact Audio Copy 1.0b3\Flac\flac.exe
Additional command line options : -V -8 -T "Date=%year%" -T "Genre=%genre%" %source%


TOC of the extracted CD

Track | Start | Length | Start sector | End sector
––––––––––––––––––––––––––––-
1 | 0:00.32 | 4:57.08 | 32 | 22314
2 | 4:57.40 | 6:42.22 | 22315 | 52486
3 | 11:39.62 | 4:53.33 | 52487 | 74494
4 | 16:33.20 | 4:57.12 | 74495 | 96781


Range status and errors

Selected range

Filename D:\Ripped By liveevil\Iron Maiden - Powerslave (7243 8 35872 2 3, CD2).wav

Peak level 100.0 %
Extraction speed 1.6 X
Range quality 100.0 %
Test CRC F3DBF924
Copy CRC F3DBF924
Copy OK

No errors occurred


AccurateRip summary

Track 1 accurately ripped (confidence 3) [15119037] (AR v2)
Track 2 accurately ripped (confidence 3) [D6377D09] (AR v2)
Track 3 accurately ripped (confidence 3) [B2E7E7AB] (AR v2)
Track 4 accurately ripped (confidence 3) [B24D9189] (AR v2)

All tracks accurately ripped

End of status report

==== Log checksum 211F9D54C3CB67C81068E3844C94742752BC9954DAA1A4186AA6003080CA43F1 ====

[CUETools log; Date: 10.05.2019 18:50:01; Version: 2.1.4]
Pregap length 00:00:32.
[CTDB TOCID: xZN1836xS6T_puDoj_065TXwdWg-] found.
Track | CTDB Status
1 | (53/53) Accurately ripped
2 | (53/53) Accurately ripped
3 | (53/53) Accurately ripped
4 | (53/53) Accurately ripped
[AccurateRip ID: 0003c15f-000f03cd-35050a04] found.
Track [ CRC | V2 ] Status
01 [5897d024|15119037] (30+54/84) Accurately ripped
02 [1e54626b|d6377d09] (29+54/83) Accurately ripped
03 [46ebdfaa|b2e7e7ab] (30+54/84) Accurately ripped
04 [ac43fc38|b24d9189] (29+54/83) Accurately ripped

Track Peak [ CRC32 ] [W/O NULL] [ LOG ]
– 100,0 [F3DBF924] [A48BF2B5] CRC32
01 100,0 [B59F5B83] [EBA0D536]
02 43,1 [208119FD] [FD592080]
03 95,8 [A43DBA78] [CED0237F]
04 95,5 [304F74ED] [38F3FAAE]

Iron Maiden - 10 Albums (1980-1992) [2CD Limited Editions 1995]

Iron Maiden - Live After Death (1985) [2CD Limited Edition 1995]
EAC Rip | FLAC (image+.cue+log) - 573 MB | MP3 CBR 320 kbps (LAME 3.93) - 198 MB | Covers - 126 MB
Genre: Heavy Metal | RAR 3% Rec. | Label: EMI (7243 8 35873 2 2)

CD 1 Tracklist:
01. Aces High
02. 2 Minutes To Midnight
03. The Trooper
04. Revelations
05. Flight Of Icarus
06. Rime Of The Ancient Mariner
07. Powerslave
08. The Number Of The Beast
09. Hallowed Be Thy Name
10. Iron Maiden
11. Run To The Hills
12. Running Free

Total time: 01:10:35

CD 2 Tracklist:
01. Losfer Words (Big 'Orra)
02. Sanctuary
03. Murders In The Rue Morgue

Total time: 13:31

Exact Audio Copy V1.0 beta 3 from 29. August 2011

EAC extraction logfile from 9. March 2013, 0:09

Iron Maiden / Live After Death (7243 8 35873 2 2, CD1)

Used drive : PLEXTOR DVDR PX-612U Adapter: 1 ID: 0

Read mode : Secure
Utilize accurate stream : Yes
Defeat audio cache : Yes
Make use of C2 pointers : No

Read offset correction : 6
Overread into Lead-In and Lead-Out : No
Fill up missing offset samples with silence : Yes
Delete leading and trailing silent blocks : No
Null samples used in CRC calculations : Yes
Used interface : Installed external ASPI interface

Used output format : User Defined Encoder
Selected bitrate : 1024 kBit/s
Quality : High
Add ID3 tag : No
Command line compressor : C:\Program Files (x86)\Exact Audio Copy 1.0b3\Flac\flac.exe
Additional command line options : -V -8 -T "Date=%year%" -T "Genre=%genre%" %source%


TOC of the extracted CD

Track | Start | Length | Start sector | End sector
––––––––––––––––––––––––––––-
1 | 0:00.33 | 5:29.17 | 33 | 24724
2 | 5:29.50 | 6:06.35 | 24725 | 52209
3 | 11:36.10 | 4:28.60 | 52210 | 72369
4 | 16:04.70 | 6:11.58 | 72370 | 100252
5 | 22:16.53 | 3:49.67 | 100253 | 117494
6 | 26:06.45 | 13:09.30 | 117495 | 176699
7 | 39:16.00 | 7:34.68 | 176700 | 210817
8 | 46:50.68 | 4:35.02 | 210818 | 231444
9 | 51:25.70 | 7:31.25 | 231445 | 265294
10 | 58:57.20 | 4:21.65 | 265295 | 284934
11 | 63:19.10 | 3:51.43 | 284935 | 302302
12 | 67:10.53 | 3:24.40 | 302303 | 317642


Range status and errors

Selected range

Filename D:\Ripped By liveevil\Iron Maiden - Live After Death (7243 8 35873 2 2, CD1).wav

Peak level 86.9 %
Extraction speed 2.2 X
Range quality 100.0 %
Test CRC 11410AAE
Copy CRC 11410AAE
Copy OK

No errors occurred


AccurateRip summary

Track 1 accurately ripped (confidence 19) [6373C273] (AR v1)
Track 2 accurately ripped (confidence 19) [21D1A42C] (AR v1)
Track 3 accurately ripped (confidence 19) [75544066] (AR v1)
Track 4 accurately ripped (confidence 19) [97ED8495] (AR v1)
Track 5 accurately ripped (confidence 19) [EEEE8BAC] (AR v1)
Track 6 accurately ripped (confidence 19) [4EE01F75] (AR v1)
Track 7 accurately ripped (confidence 19) [7A8B55FF] (AR v1)
Track 8 accurately ripped (confidence 19) [30526A96] (AR v1)
Track 9 accurately ripped (confidence 19) [A0247303] (AR v1)
Track 10 accurately ripped (confidence 19) [406E81A5] (AR v1)
Track 11 accurately ripped (confidence 19) [FE3C30E1] (AR v1)
Track 12 accurately ripped (confidence 19) [6357C018] (AR v1)

All tracks accurately ripped

End of status report

==== Log checksum 02C4C8C98422ADD7209231C710BF27BF60288BBC3BED945F2DA79AEF9DC51CF4 ====

[CUETools log; Date: 10.05.2019 18:50:47; Version: 2.1.4]
Pregap length 00:00:33.
[CTDB TOCID: .0.wgqQ4vEUV798aFluPShQXLyg-] found.
Track | CTDB Status
1 | (435/450) Accurately ripped
2 | (319/450) Accurately ripped, or (69/450) differs in 3 samples @02:12:37, or (39/450) differs in 3 samples @02:12:27
3 | (438/450) Accurately ripped
4 | ( 48/450) Accurately ripped, or (69/450) differs in 1 samples @03:01:54, or (223/450) differs in 1 samples @03:01:54, or (39/450) differs in 1 samples @03:01:54
5 | (439/450) Accurately ripped
6 | ( 50/450) Accurately ripped, or (69/450) differs in 1 samples @01:05:45, or (223/450) differs in 1 samples @01:05:45, or (39/450) differs in 1 samples @01:05:45
7 | (428/450) Accurately ripped
8 | (434/450) Accurately ripped
9 | (426/450) Accurately ripped
10 | (422/450) Accurately ripped
11 | (425/450) Accurately ripped
12 | (414/450) Accurately ripped
[AccurateRip ID: 0020e6c1-0135075b-b2108b0c] found.
Track [ CRC | V2 ] Status
01 [6373c273|83ff63ad] (019+038/302) Accurately ripped
02 [21d1a42c|20150351] (019+038/306) Accurately ripped
03 [75544066|3dc23629] (019+038/303) Accurately ripped
04 [97ed8495|ef702080] (019+037/305) Accurately ripped
05 [eeee8bac|2251628d] (019+037/304) Accurately ripped
06 [4ee01f75|0932d725] (019+036/295) Accurately ripped
07 [7a8b55ff|9ec4e277] (019+036/303) Accurately ripped
08 [30526a96|bfb7087a] (019+037/298) Accurately ripped
09 [a0247303|12b0b232] (019+036/291) Accurately ripped
10 [406e81a5|412bfd89] (019+036/296) Accurately ripped
11 [fe3c30e1|8b80255c] (019+035/291) Accurately ripped
12 [6357c018|39103b72] (019+036/292) Accurately ripped
Offsetted by -34:
01 [37e16fb4] (011/302) Accurately ripped
02 [42181605] (012/306) Accurately ripped
03 [d6e13bc4] (011/303) Accurately ripped
04 [b7700e87] (000/305) No match (V2 was not tested)
05 [909f2fe8] (011/304) Accurately ripped
06 [39cb58b3] (000/295) No match (V2 was not tested)
07 [24dcd905] (013/303) Accurately ripped
08 [dcbfa867] (013/298) Accurately ripped
09 [4ff77c53] (013/291) Accurately ripped
10 [33823883] (012/296) Accurately ripped
11 [c274b80f] (010/291) Accurately ripped
12 [da48c781] (010/292) Accurately ripped
Offsetted by 101:
01 [c4d49457] (032/302) Accurately ripped
02 [acf1d98f] (031/306) Accurately ripped
03 [283de379] (030/303) Accurately ripped
04 [d3811a98] (000/305) No match (V2 was not tested)
05 [4691446a] (032/304) Accurately ripped
06 [a50f0f3c] (000/295) No match (V2 was not tested)
07 [5319a7db] (031/303) Accurately ripped
08 [759754be] (030/298) Accurately ripped
09 [91752c23] (025/291) Accurately ripped
10 [7767754d] (030/296) Accurately ripped
11 [a07d2857] (030/291) Accurately ripped
12 [49a1cb3c] (029/292) Accurately ripped
Offsetted by 247:
01 [0bdbc63c] (053/302) Accurately ripped
02 [c478aff6] (055/306) Accurately ripped
03 [0cdc4c99] (056/303) Accurately ripped
04 [00874305] (000/305) No match (V2 was not tested)
05 [c4401825] (055/304) Accurately ripped
06 [3178364e] (000/295) No match (V2 was not tested)
07 [168b94cd] (055/303) Accurately ripped
08 [f5d4039d] (055/298) Accurately ripped
09 [2ead648f] (052/291) Accurately ripped
10 [3979d092] (053/296) Accurately ripped
11 [e17832ef] (052/291) Accurately ripped
12 [57969cd4] (053/292) Accurately ripped
Offsetted by 317:
01 [ea98ae08] (009/302) Accurately ripped
02 [85f2060a] (009/306) Accurately ripped
03 [09e54645] (009/303) Accurately ripped
04 [fc1e0e46] (000/305) No match (V2 was not tested)
05 [a161fef3] (009/304) Accurately ripped
06 [02c1dbd4] (000/295) No match (V2 was not tested)
07 [66000042] (009/303) Accurately ripped
08 [418dee6a] (008/298) Accurately ripped
09 [aad373e5] (009/291) Accurately ripped
10 [86a5458f] (009/296) Accurately ripped
11 [c2e19d99] (009/291) Accurately ripped
12 [0e938770] (009/292) Accurately ripped
Offsetted by 468:
01 [078a309e] (000/302) No match (V2 was not tested)
02 [aa1fcbcf] (000/306) No match (V2 was not tested)
03 [07af9c46] (000/303) No match (V2 was not tested)
04 [27a6c259] (000/305) No match (V2 was not tested)
05 [7a610554] (000/304) No match (V2 was not tested)
06 [bc191fe5] (000/295) No match (V2 was not tested)
07 [77971089] (000/303) No match (V2 was not tested)
08 [167afae5] (000/298) No match (V2 was not tested)
09 [9c8853de] (000/291) No match (V2 was not tested)
10 [95a346aa] (000/296) No match (V2 was not tested)
11 [fab445f5] (000/291) No match (V2 was not tested)
12 [3afd2b05] (000/292) No match (V2 was not tested)

Track Peak [ CRC32 ] [W/O NULL] [ LOG ]
– 86,9 [11410AAE] [4E560D9B] CRC32
01 79,5 [C2451CBB] [80F19A94]
02 82,5 [BE81AFEA] [E51D44D3]
03 86,4 [60DEB7BB] [16C0D7DF]
04 76,9 [48659AF9] [0D0DAE1A]
05 82,8 [7C48A025] [622EC7C1]
06 82,1 [8B8C5BDD] [6CA0377E]
07 80,3 [24649006] [FA9E453C]
08 77,9 [8BEBC6DB] [C7F8F1AE]
09 86,9 [C7E1B100] [DA659A89]
10 80,2 [D9D5539E] [A219936C]
11 84,4 [20775EFC] [3B33D5FC]
12 84,9 [2307FE27] [7CF79C14]

Exact Audio Copy V1.0 beta 3 from 29. August 2011

EAC extraction logfile from 9. March 2013, 0:32

Iron Maiden / Live After Death (7243 8 35873 2 2, CD2)

Used drive : PLEXTOR DVDR PX-612U Adapter: 1 ID: 0

Read mode : Secure
Utilize accurate stream : Yes
Defeat audio cache : Yes
Make use of C2 pointers : No

Read offset correction : 6
Overread into Lead-In and Lead-Out : No
Fill up missing offset samples with silence : Yes
Delete leading and trailing silent blocks : No
Null samples used in CRC calculations : Yes
Used interface : Installed external ASPI interface

Used output format : User Defined Encoder
Selected bitrate : 1024 kBit/s
Quality : High
Add ID3 tag : No
Command line compressor : C:\Program Files (x86)\Exact Audio Copy 1.0b3\Flac\flac.exe
Additional command line options : -V -8 -T "Date=%year%" -T "Genre=%genre%" %source%


TOC of the extracted CD

Track | Start | Length | Start sector | End sector
––––––––––––––––––––––––––––-
1 | 0:00.33 | 4:17.55 | 33 | 19362
2 | 4:18.13 | 4:40.67 | 19363 | 40429
3 | 8:59.05 | 4:32.20 | 40430 | 60849


Range status and errors

Selected range

Filename D:\Ripped By liveevil\Iron Maiden - Live After Death (7243 8 35873 2 2, CD2).wav

Peak level 100.0 %
Extraction speed 1.3 X
Range quality 100.0 %
Test CRC 53BA0695
Copy CRC 53BA0695
Copy OK

No errors occurred


AccurateRip summary

Track 1 accurately ripped (confidence 23) [A658887D] (AR v1)
Track 2 accurately ripped (confidence 23) [B335B5DE] (AR v1)
Track 3 accurately ripped (confidence 23) [368011E5] (AR v1)

All tracks accurately ripped

End of status report

==== Log checksum 34D0C95AEA9788C93D93C85F8BC0E7CA0E998A72C083ED3188D9A9C4DC21B3AA ====

[CUETools log; Date: 10.05.2019 18:51:13; Version: 2.1.4]
Pregap length 00:00:33.
[CTDB TOCID: 5vNn4pc_qSciF3tZSPlFqnzB0Nw-] found.
Track | CTDB Status
1 | (46/46) Accurately ripped
2 | (46/46) Accurately ripped
3 | (46/46) Accurately ripped
[AccurateRip ID: 0001d764-000627f9-14032b03] found.
Track [ CRC | V2 ] Status
01 [a658887d|e8a55fb5] (23+41/64) Accurately ripped
02 [b335b5de|e46b6fc3] (23+40/63) Accurately ripped
03 [368011e5|4befdcad] (23+41/64) Accurately ripped

Track Peak [ CRC32 ] [W/O NULL] [ LOG ]
– 100,0 [53BA0695] [BE3801DF] CRC32
01 100,0 [0050E599] [D0574485]
02 94,8 [0B0870D8] [8EC3B6FD]
03 95,2 [8982E71E] [5C626625]

Iron Maiden - 10 Albums (1980-1992) [2CD Limited Editions 1995]

Iron Maiden - Somewhere In Time (1986) [2CD Limited Edition 1995]
EAC Rip | FLAC (image+.cue+log) - 461 MB | MP3 CBR 320 kbps (LAME 3.93) - 158 MB | Covers - 94 MB
Genre: Heavy Metal | RAR 3% Rec. | Label: EMI (7243 8 35874 2 1)

CD 1 Tracklist:
01. Caught Somewhere In Time
02. Wasted Years
03. Sea Of Madness
04. Heaven Can Wait
05. The Loneliness Of The Long Distance Runner
06. Stranger In A Strange Land
07. Deja-Vu
08. Alexander The Great

Total time: 51:25

CD 2 Tracklist:
01. Reach Out
02. Juanita
03. Sherriff Of Huddersfield
04. That Girl

Total time: 15:56

Exact Audio Copy V1.0 beta 3 from 29. August 2011

EAC extraction logfile from 9. March 2013, 1:34

Iron Maiden / Somewhere In Time (7243 8 35874 2 1, CD1)

Used drive : PLEXTOR DVDR PX-612U Adapter: 1 ID: 0

Read mode : Secure
Utilize accurate stream : Yes
Defeat audio cache : Yes
Make use of C2 pointers : No

Read offset correction : 6
Overread into Lead-In and Lead-Out : No
Fill up missing offset samples with silence : Yes
Delete leading and trailing silent blocks : No
Null samples used in CRC calculations : Yes
Used interface : Installed external ASPI interface

Used output format : User Defined Encoder
Selected bitrate : 1024 kBit/s
Quality : High
Add ID3 tag : No
Command line compressor : C:\Program Files (x86)\Exact Audio Copy 1.0b3\Flac\flac.exe
Additional command line options : -V -8 -T "Date=%year%" -T "Genre=%genre%" %source%


TOC of the extracted CD

Track | Start | Length | Start sector | End sector
––––––––––––––––––––––––––––-
1 | 0:00.32 | 7:25.63 | 32 | 33469
2 | 7:26.20 | 5:07.42 | 33470 | 56536
3 | 12:33.62 | 5:41.73 | 56537 | 82184
4 | 18:15.60 | 7:21.30 | 82185 | 115289
5 | 25:37.15 | 6:31.25 | 115290 | 144639
6 | 32:08.40 | 5:44.35 | 144640 | 170474
7 | 37:53.00 | 4:56.15 | 170475 | 192689
8 | 42:49.15 | 8:35.47 | 192690 | 231361


Range status and errors

Selected range

Filename D:\Ripped By liveevil\Iron Maiden - Somewhere In Time (7243 8 35874 2 1, CD1).wav

Peak level 92.9 %
Extraction speed 1.9 X
Range quality 100.0 %
Test CRC ECA46080
Copy CRC ECA46080
Copy OK

No errors occurred


AccurateRip summary

Track 1 accurately ripped (confidence 2) [D0D79195] (AR v2)
Track 2 accurately ripped (confidence 2) [A7C3F15A] (AR v2)
Track 3 accurately ripped (confidence 2) [4FC250D3] (AR v2)
Track 4 accurately ripped (confidence 2) [C392B23A] (AR v2)
Track 5 accurately ripped (confidence 2) [8C6C7BEE] (AR v2)
Track 6 accurately ripped (confidence 2) [8B084782] (AR v2)
Track 7 accurately ripped (confidence 2) [1DA93365] (AR v2)
Track 8 accurately ripped (confidence 2) [5EB723E2] (AR v2)

All tracks accurately ripped

End of status report

==== Log checksum CAACED5D8E296B42EC88E4F196BCECCFB9CB704A47662BC9847C55E858D6857A ====

[CUETools log; Date: 10.05.2019 18:51:49; Version: 2.1.4]
Pregap length 00:00:32.
[CTDB TOCID: Kt4BZvMd0fK4lRAHfdZRoQQjwME-] found.
Track | CTDB Status
1 | ( 71/201) Accurately ripped
2 | ( 71/201) Accurately ripped
3 | ( 71/201) Accurately ripped
4 | ( 71/201) Accurately ripped
5 | ( 71/201) Accurately ripped
6 | ( 71/201) Accurately ripped
7 | ( 71/201) Accurately ripped
8 | ( 72/201) Accurately ripped
[AccurateRip ID: 000faa79-00682adc-720c0c08] found.
Track [ CRC | V2 ] Status
01 [5f59541b|d0d79195] (021+050/171) Accurately ripped
02 [06803713|a7c3f15a] (022+050/173) Accurately ripped
03 [21d7b5e2|4fc250d3] (022+050/170) Accurately ripped
04 [095f5f7c|c392b23a] (022+050/170) Accurately ripped
05 [12f90c7d|8c6c7bee] (022+051/172) Accurately ripped
06 [0e40fad6|8b084782] (022+050/171) Accurately ripped
07 [8ef7ccdb|1da93365] (022+050/172) Accurately ripped
08 [21df5ffd|5eb723e2] (022+053/173) Accurately ripped

Track Peak [ CRC32 ] [W/O NULL] [ LOG ]
– 92,9 [ECA46080] [8CA866F4] CRC32
01 88,1 [800DFA7F] [D293CBAD]
02 92,9 [8D3DA4E4] [61AD78B1]
03 88,1 [73E31EDB] [8246E0CE]
04 85,6 [BF831B5C] [493D0A0B]
05 86,3 [6ADD2163] [D82330FC]
06 89,8 [3D0E1A04] [64EA5410]
07 88,1 [4EE40E6C] [B822BE12]
08 89,2 [F064E191] [EFC09F9E]

Exact Audio Copy V1.0 beta 3 from 29. August 2011

EAC extraction logfile from 9. March 2013, 1:58

Iron Maiden / Somewhere In Time (7243 8 35874 2 1, CD2)

Used drive : PLEXTOR DVDR PX-612U Adapter: 1 ID: 0

Read mode : Secure
Utilize accurate stream : Yes
Defeat audio cache : Yes
Make use of C2 pointers : No

Read offset correction : 6
Overread into Lead-In and Lead-Out : No
Fill up missing offset samples with silence : Yes
Delete leading and trailing silent blocks : No
Null samples used in CRC calculations : Yes
Used interface : Installed external ASPI interface

Used output format : User Defined Encoder
Selected bitrate : 1024 kBit/s
Quality : High
Add ID3 tag : No
Command line compressor : C:\Program Files (x86)\Exact Audio Copy 1.0b3\Flac\flac.exe
Additional command line options : -V -8 -T "Date=%year%" -T "Genre=%genre%" %source%


TOC of the extracted CD

Track | Start | Length | Start sector | End sector
––––––––––––––––––––––––––––-
1 | 0:00.32 | 3:31.13 | 32 | 15869
2 | 3:31.45 | 3:46.60 | 15870 | 32879
3 | 7:18.30 | 3:34.47 | 32880 | 48976
4 | 10:53.02 | 5:03.35 | 48977 | 71736


Range status and errors

Selected range

Filename D:\Ripped By liveevil\Iron Maiden - Somewhere In Time (7243 8 35874 2 1, CD2).wav

Peak level 97.7 %
Extraction speed 1.4 X
Range quality 99.9 %
Test CRC 08C5C5A7
Copy CRC 08C5C5A7
Copy OK

No errors occurred


AccurateRip summary

Track 1 accurately ripped (confidence 2) [9E769978] (AR v2)
Track 2 accurately ripped (confidence 2) [7C1985BA] (AR v2)
Track 3 accurately ripped (confidence 2) [32E28A3D] (AR v2)
Track 4 accurately ripped (confidence 2) [E5B8B14D] (AR v2)

All tracks accurately ripped

End of status report

==== Log checksum 14B343CC629E14C31C6869DC1D1D36E77EACA1AA0BE00B87D86A4256AE6E7253 ====

[CUETools log; Date: 10.05.2019 18:52:23; Version: 2.1.4]
Pregap length 00:00:32.
[CTDB TOCID: KU17sNbY6W4NiTL8U6xL3LhxEzw-] found.
Track | CTDB Status
1 | (58/58) Accurately ripped
2 | (58/58) Accurately ripped
3 | (58/58) Accurately ripped
4 | (58/58) Accurately ripped
[AccurateRip ID: 00029618-000a73cd-2003bc04] found.
Track [ CRC | V2 ] Status
01 [c129d8c3|9e769978] (23+44/67) Accurately ripped
02 [f6d50384|7c1985ba] (24+45/69) Accurately ripped
03 [31fbc56c|32e28a3d] (24+45/69) Accurately ripped
04 [db9dd75e|e5b8b14d] (24+45/69) Accurately ripped

Track Peak [ CRC32 ] [W/O NULL] [ LOG ]
– 97,7 [08C5C5A7] [5691DA4A] CRC32
01 97,7 [364E352D] [719ABBE4]
02 78,8 [37973DF0] [08D1A585]
03 87,0 [8AE944B2] [A4AC9D30]
04 96,3 [CBCC4700] [131CBD72]

Iron Maiden - 10 Albums (1980-1992) [2CD Limited Editions 1995]

Iron Maiden - Seventh Son Of A Seventh Son (1988) [2CD Limited Edition 1995]
EAC Rip | FLAC (image+.cue+log) - 594 MB | MP3 CBR 320 kbps (LAME 3.93) - 208 MB | Covers - 90 MB
Genre: Heavy Metal | RAR 3% Rec. | Label: EMI (7243 8 35875 2 0)

CD 1 Tracklist:
01. Moonchild
02. Infinite Dreams
03. Can I Play With Madness
04. The Evil That Men Do
05. Seventh Son Of A Seventh Son
06. The Prophecy
07. The Clairvoyant
08. Only The Good Die Young

Total time: 44:07

CD 2 Tracklist:
01. Black Bart Blues
02. Massacre
03. Prowler '88
04. Charlotte The Harlot '88
05. Infinite Dreams (Live)
06. The Clairvoyant (Live)
07. The Prisoner (Live)
08. Killers (Live)
09. Still Life (Live)

Total time: 44:15

Exact Audio Copy V1.0 beta 3 from 29. August 2011

EAC extraction logfile from 9. March 2013, 9:46

Iron Maiden / Seventh Son Of A Seventh Son (7243 8 35875 2 0, CD1)

Used drive : PLEXTOR DVDR PX-612U Adapter: 1 ID: 0

Read mode : Secure
Utilize accurate stream : Yes
Defeat audio cache : Yes
Make use of C2 pointers : No

Read offset correction : 6
Overread into Lead-In and Lead-Out : No
Fill up missing offset samples with silence : Yes
Delete leading and trailing silent blocks : No
Null samples used in CRC calculations : Yes
Used interface : Installed external ASPI interface

Used output format : User Defined Encoder
Selected bitrate : 1024 kBit/s
Quality : High
Add ID3 tag : No
Command line compressor : C:\Program Files (x86)\Exact Audio Copy 1.0b3\Flac\flac.exe
Additional command line options : -V -8 -T "Date=%year%" -T "Genre=%genre%" %source%


TOC of the extracted CD

Track | Start | Length | Start sector | End sector
––––––––––––––––––––––––––––-
1 | 0:00.32 | 5:41.50 | 32 | 25656
2 | 5:42.07 | 6:09.20 | 25657 | 53351
3 | 11:51.27 | 3:31.00 | 53352 | 69176
4 | 15:22.27 | 4:35.45 | 69177 | 89846
5 | 19:57.72 | 9:53.60 | 89847 | 134381
6 | 29:51.57 | 5:05.35 | 134382 | 157291
7 | 34:57.17 | 4:27.03 | 157292 | 177319
8 | 39:24.20 | 4:42.52 | 177320 | 198521


Range status and errors

Selected range

Filename D:\Ripped By liveevil\Iron Maiden - Seventh Son Of A Seventh Son (7243 8 35875 2 0, CD1).wav

Peak level 100.0 %
Extraction speed 1.9 X
Range quality 100.0 %
Test CRC E368938E
Copy CRC E368938E
Copy OK

No errors occurred


AccurateRip summary

Track 1 accurately ripped (confidence 3) [C5C41091] (AR v2)
Track 2 accurately ripped (confidence 3) [9600358A] (AR v2)
Track 3 accurately ripped (confidence 3) [8ED50D94] (AR v2)
Track 4 accurately ripped (confidence 3) [D297F464] (AR v2)
Track 5 accurately ripped (confidence 3) [6B65D0C9] (AR v2)
Track 6 accurately ripped (confidence 3) [5C697E69] (AR v2)
Track 7 accurately ripped (confidence 3) [FA0714BD] (AR v2)
Track 8 accurately ripped (confidence 3) [F18F82BD] (AR v2)

All tracks accurately ripped

End of status report

==== Log checksum 2B552CAD980B4F413432B09A70417E1120AD249E09341DE4D98AF42AD17C6E08 ====

[CUETools log; Date: 10.05.2019 18:53:09; Version: 2.1.4]
Pregap length 00:00:32.
[CTDB TOCID: _q1YLtl35rhTBwkQKrIqBnrA0f4-] found.
Track | CTDB Status
1 | (58/58) Accurately ripped
2 | (56/58) Accurately ripped
3 | (57/58) Accurately ripped
4 | (57/58) Accurately ripped
5 | (56/58) Accurately ripped
6 | (57/58) Accurately ripped
7 | (57/58) Accurately ripped
8 | (57/58) Accurately ripped
[AccurateRip ID: 000dd16d-005c5093-740a5608] found.
Track [ CRC | V2 ] Status
01 [9e03963b|c5c41091] (26+49/81) Accurately ripped
02 [53ebea7c|9600358a] (26+49/80) Accurately ripped
03 [fd517930|8ed50d94] (26+49/80) Accurately ripped
04 [7a09ecc9|d297f464] (26+49/80) Accurately ripped
05 [60f1f01a|6b65d0c9] (27+49/81) Accurately ripped
06 [ffa55f3f|5c697e69] (27+49/81) Accurately ripped
07 [222c8f8b|fa0714bd] (27+49/81) Accurately ripped
08 [195db131|f18f82bd] (25+49/79) Accurately ripped
Offsetted by 472:
01 [2b9d4e53] (02/81) Accurately ripped
02 [d5b33d52] (02/80) Accurately ripped
03 [bf757a57] (02/80) Accurately ripped
04 [30a59160] (02/80) Accurately ripped
05 [00b2dcc0] (02/81) Accurately ripped
06 [32443756] (02/81) Accurately ripped
07 [5c41ae3a] (02/81) Accurately ripped
08 [82cb45fd] (02/79) Accurately ripped
Offsetted by -554:
01 [fe526aa1] (00/81) No match (V2 was not tested)
02 [2075e7d9] (00/80) No match (V2 was not tested)
03 [565efd68] (00/80) No match (V2 was not tested)
04 [bd8d6cec] (00/80) No match (V2 was not tested)
05 [eb616092] (00/81) No match (V2 was not tested)
06 [676b6c46] (00/81) No match (V2 was not tested)
07 [3d9b0c93] (00/81) No match (V2 was not tested)
08 [ab939528] (00/79) No match (V2 was not tested)

Track Peak [ CRC32 ] [W/O NULL] [ LOG ]
– 100,0 [E368938E] [3D8A9063] CRC32
01 100,0 [5F051DCD] [6D58CE4D]
02 100,0 [39086879] [BF893B75]
03 99,0 [5BF702B0] [5991E69E]
04 100,0 [7926EFB4] [7EF78BEF]
05 99,3 [A09B1F9B] [3FBF3811]
06 82,0 [401DA388] [4BEF2DDD]
07 94,4 [41BA2508] [2BD96018]
08 76,6 [3950F5C8] [A0CEC24F]

Exact Audio Copy V1.0 beta 3 from 29. August 2011

EAC extraction logfile from 9. March 2013, 10:10

Iron Maiden / Seventh Son Of A Seventh Son (7243 8 35875 2 0, CD2)

Used drive : PLEXTOR DVDR PX-612U Adapter: 1 ID: 0

Read mode : Secure
Utilize accurate stream : Yes
Defeat audio cache : Yes
Make use of C2 pointers : No

Read offset correction : 6
Overread into Lead-In and Lead-Out : No
Fill up missing offset samples with silence : Yes
Delete leading and trailing silent blocks : No
Null samples used in CRC calculations : Yes
Used interface : Installed external ASPI interface

Used output format : User Defined Encoder
Selected bitrate : 1024 kBit/s
Quality : High
Add ID3 tag : No
Command line compressor : C:\Program Files (x86)\Exact Audio Copy 1.0b3\Flac\flac.exe
Additional command line options : -V -8 -T "Date=%year%" -T "Genre=%genre%" %source%


TOC of the extracted CD

Track | Start | Length | Start sector | End sector
––––––––––––––––––––––––––––-
1 | 0:00.00 | 6:41.25 | 0 | 30099
2 | 6:41.25 | 2:53.42 | 30100 | 43116
3 | 9:34.67 | 4:07.30 | 43117 | 61671
4 | 13:42.22 | 4:11.15 | 61672 | 80511
5 | 17:53.37 | 6:03.43 | 80512 | 107779
6 | 23:57.05 | 4:27.17 | 107780 | 127821
7 | 28:24.22 | 6:09.15 | 127822 | 155511
8 | 34:33.37 | 5:03.23 | 155512 | 178259
9 | 39:36.60 | 4:38.35 | 178260 | 199144


Range status and errors

Selected range

Filename D:\Ripped By liveevil\Iron Maiden - Seventh Son Of A Seventh Son (7243 8 35875 2 0, CD2).wav

Peak level 97.7 %
Extraction speed 4.5 X
Range quality 100.0 %
Test CRC 5C299AD8
Copy CRC 5C299AD8
Copy OK

No errors occurred


AccurateRip summary

Track 1 accurately ripped (confidence 3) [CB589A0E] (AR v2)
Track 2 accurately ripped (confidence 3) [64C89F50] (AR v2)
Track 3 accurately ripped (confidence 3) [9C779373] (AR v2)
Track 4 accurately ripped (confidence 3) [174F6CD0] (AR v2)
Track 5 accurately ripped (confidence 3) [7DBDADA4] (AR v2)
Track 6 accurately ripped (confidence 3) [3D61D029] (AR v2)
Track 7 accurately ripped (confidence 3) [1E30C534] (AR v2)
Track 8 accurately ripped (confidence 3) [2145F32C] (AR v2)
Track 9 accurately ripped (confidence 3) [F34B6998] (AR v2)

All tracks accurately ripped

End of status report

==== Log checksum 46207E6F2377D40718285254D9BEF6CBFE6888753F7AC927A998C47B9E38615E ====

[CUETools log; Date: 10.05.2019 18:53:41; Version: 2.1.4]
[CTDB TOCID: k8QvDJbsya7XEt_bljmvaeMJgiU-] found.
Track | CTDB Status
1 | (73/74) Accurately ripped
2 | (73/74) Accurately ripped
3 | (72/74) Accurately ripped
4 | (72/74) Accurately ripped
5 | (72/74) Accurately ripped
6 | (72/74) Accurately ripped
7 | (72/74) Accurately ripped
8 | (72/74) Accurately ripped
9 | (71/74) Accurately ripped
[AccurateRip ID: 000f0370-006e2b98-770a5f09] found.
Track [ CRC | V2 ] Status
01 [7755c76b|cb589a0e] (26+45/71) Accurately ripped
02 [29510eb5|64c89f50] (27+45/72) Accurately ripped
03 [8505455d|9c779373] (27+45/72) Accurately ripped
04 [7c733b1a|174f6cd0] (27+45/72) Accurately ripped
05 [848c9245|7dbdada4] (27+45/72) Accurately ripped
06 [e64c65ab|3d61d029] (26+45/71) Accurately ripped
07 [408cc8bd|1e30c534] (26+45/71) Accurately ripped
08 [19539fb5|2145f32c] (26+45/71) Accurately ripped
09 [815cf0c3|f34b6998] (27+45/72) Accurately ripped

Track Peak [ CRC32 ] [W/O NULL] [ LOG ]
– 97,7 [5C299AD8] [5DE02BFA] CRC32
01 90,9 [0E3B1F40] [17908C66]
02 75,9 [4E3B13C8] [DDD1499D]
03 91,1 [BAA4C00B] [DA76439E]
04 97,7 [C09957A5] [BA8824C7]
05 97,7 [51EE00FB] [B1306F7E]
06 97,7 [5E046D8A] [0569EA12]
07 97,7 [6DB5C1D0] [AB313527]
08 97,1 [48E62CB7] [AB029731]
09 97,7 [9EE8B273] [C9005B43]

Iron Maiden - 10 Albums (1980-1992) [2CD Limited Editions 1995]

Iron Maiden - No Prayer For The Dying (1990) [2CD Limited Edition 1995]
EAC Rip | FLAC (image+.cue+log) - 436 MB | MP3 CBR 320 kbps (LAME 3.93) - 144 MB | Covers - 96 MB
Genre: Heavy Metal | RAR 3% Rec. | Label: EMI (7243 8 35876 2 9)

CD 1 Tracklist:
01. Tailgunner
02. Holy Smoke
03. No Prayer For The Dying
04. Public Enema Number One
05. Fates Warning
06. The Assassin
07. Run Silent Run Deep
08. Hooks In You
09. Bring Your Daughter… To The Slaughter
10. Mother Russia

Total time: 44:07

CD 2 Tracklist:
01. All In Your Mind
02. Kill Me Ce Soir
03. I'm A Mover
04. Communication Breakdown

Total time: 17:00

Exact Audio Copy V1.0 beta 3 from 29. August 2011

EAC extraction logfile from 9. March 2013, 11:28

Iron Maiden / No Prayer For The Dying (7243 8 35876 2 9, CD1)

Used drive : PLEXTOR DVDR PX-612U Adapter: 1 ID: 0

Read mode : Secure
Utilize accurate stream : Yes
Defeat audio cache : Yes
Make use of C2 pointers : No

Read offset correction : 6
Overread into Lead-In and Lead-Out : No
Fill up missing offset samples with silence : Yes
Delete leading and trailing silent blocks : No
Null samples used in CRC calculations : Yes
Used interface : Installed external ASPI interface

Used output format : User Defined Encoder
Selected bitrate : 1024 kBit/s
Quality : High
Add ID3 tag : No
Command line compressor : C:\Program Files (x86)\Exact Audio Copy 1.0b3\Flac\flac.exe
Additional command line options : -V -8 -T "Date=%year%" -T "Genre=%genre%" %source%


TOC of the extracted CD

Track | Start | Length | Start sector | End sector
––––––––––––––––––––––––––––-
1 | 0:00.32 | 4:15.00 | 32 | 19156
2 | 4:15.32 | 3:48.65 | 19157 | 36321
3 | 8:04.22 | 4:23.28 | 36322 | 56074
4 | 12:27.50 | 4:13.45 | 56075 | 75094
5 | 16:41.20 | 4:10.20 | 75095 | 93864
6 | 20:51.40 | 4:18.12 | 93865 | 113226
7 | 25:09.52 | 4:34.63 | 113227 | 133839
8 | 29:44.40 | 4:06.70 | 133840 | 152359
9 | 33:51.35 | 4:43.47 | 152360 | 173631
10 | 38:35.07 | 5:32.03 | 173632 | 198534


Range status and errors

Selected range

Filename D:\Ripped By liveevil\Iron Maiden - No Prayer For The Dying (7243 8 35876 2 9, CD1).wav

Peak level 97.7 %
Extraction speed 1.9 X
Range quality 100.0 %
Test CRC C11865E8
Copy CRC C11865E8
Copy OK

No errors occurred


AccurateRip summary

Track 1 accurately ripped (confidence 2) [0EBFB65A] (AR v2)
Track 2 accurately ripped (confidence 2) [54D70EAE] (AR v2)
Track 3 accurately ripped (confidence 2) [1EEDCD43] (AR v2)
Track 4 accurately ripped (confidence 2) [0F3725DC] (AR v2)
Track 5 accurately ripped (confidence 2) [1186AD75] (AR v2)
Track 6 accurately ripped (confidence 2) [E7EA6422] (AR v2)
Track 7 accurately ripped (confidence 2) [E60D7F6A] (AR v2)
Track 8 accurately ripped (confidence 2) [218ED283] (AR v2)
Track 9 accurately ripped (confidence 2) [0C733BB6] (AR v2)
Track 10 accurately ripped (confidence 2) [DF07B732] (AR v2)

All tracks accurately ripped

End of status report

==== Log checksum B47ED81FADE1A44C0CD0940DC60AE37753DAE4EBB3AD99678F3E0A1970D1001D ====

[CUETools log; Date: 10.05.2019 18:54:05; Version: 2.1.4]
Pregap length 00:00:32.
[CTDB TOCID: NCck5CgAxTNdRy5jhjkpDi24Biw-] found.
Track | CTDB Status
1 | (286/287) Accurately ripped
2 | (286/287) Accurately ripped
3 | (283/287) Accurately ripped
4 | (284/287) Accurately ripped
5 | (284/287) Accurately ripped
6 | (285/287) Accurately ripped
7 | (283/287) Accurately ripped
8 | (284/287) Accurately ripped
9 | (286/287) Accurately ripped
10 | (284/287) Accurately ripped
[AccurateRip ID: 00100dec-00812a87-780a570a] found.
Track [ CRC | V2 ] Status
01 [9522fae2|0ebfb65a] (019+041/243) Accurately ripped
02 [18927096|54d70eae] (019+041/245) Accurately ripped
03 [91f3a75a|1eedcd43] (018+041/244) Accurately ripped
04 [e0dc0631|0f3725dc] (019+041/245) Accurately ripped
05 [2e222acb|1186ad75] (019+041/246) Accurately ripped
06 [0547a2cd|e7ea6422] (019+041/245) Accurately ripped
07 [0c035e1c|e60d7f6a] (019+041/244) Accurately ripped
08 [c4250b36|218ed283] (019+041/245) Accurately ripped
09 [9a43e806|0c733bb6] (019+041/245) Accurately ripped
10 [152fab4e|df07b732] (019+041/246) Accurately ripped
Offsetted by 1891:
01 [d4e35b37] (002/243) Accurately ripped
02 [9e4b493e] (002/245) Accurately ripped
03 [99383f37] (002/244) Accurately ripped
04 [6e70e8a7] (002/245) Accurately ripped
05 [5de832c6] (002/246) Accurately ripped
06 [cac6ae36] (002/245) Accurately ripped
07 [407c0ef8] (002/244) Accurately ripped
08 [a64d4bb8] (002/245) Accurately ripped
09 [cc446dba] (002/245) Accurately ripped
10 [919b58b5] (002/246) Accurately ripped
Offsetted by 1897:
01 [de2b5be9] (077/243) Accurately ripped
02 [571d7022] (077/245) Accurately ripped
03 [dd27827d] (077/244) Accurately ripped
04 [379aa541] (078/245) Accurately ripped
05 [47380b52] (078/246) Accurately ripped
06 [4698c8c8] (078/245) Accurately ripped
07 [57e8ac50] (077/244) Accurately ripped
08 [ddaaf9a7] (078/245) Accurately ripped
09 [d0e7553b] (077/245) Accurately ripped
10 [4745dbc3] (078/246) Accurately ripped

Track Peak [ CRC32 ] [W/O NULL] [ LOG ]
– 97,7 [C11865E8] [277BE397] CRC32
01 97,7 [4042DA2D] [35393EB1]
02 97,7 [65B269D8] [E335DDEC]
03 97,7 [AF15A688] [3D4BEDBE]
04 97,7 [9B78BA20] [A9C958FF]
05 97,7 [90D40A21] [C7326BA7]
06 97,7 [6E44D7A2] [D97DDD16]
07 97,7 [BB6D66B1] [104FFE1A]
08 97,7 [7CC39C7F] [04ABE8A7]
09 97,7 [F1C2032B] [7A631BD8]
10 97,7 [11859AF9] [44064066]

Exact Audio Copy V1.0 beta 3 from 29. August 2011

EAC extraction logfile from 9. March 2013, 12:00

Iron Maiden / No Prayer For The Dying (7243 8 35876 2 9, CD2)

Used drive : PLEXTOR DVDR PX-612U Adapter: 1 ID: 0

Read mode : Secure
Utilize accurate stream : Yes
Defeat audio cache : Yes
Make use of C2 pointers : No

Read offset correction : 6
Overread into Lead-In and Lead-Out : No
Fill up missing offset samples with silence : Yes
Delete leading and trailing silent blocks : No
Null samples used in CRC calculations : Yes
Used interface : Installed external ASPI interface

Used output format : User Defined Encoder
Selected bitrate : 1024 kBit/s
Quality : High
Add ID3 tag : No
Command line compressor : C:\Program Files (x86)\Exact Audio Copy 1.0b3\Flac\flac.exe
Additional command line options : -V -8 -T "Date=%year%" -T "Genre=%genre%" %source%


TOC of the extracted CD

Track | Start | Length | Start sector | End sector
––––––––––––––––––––––––––––-
1 | 0:00.32 | 4:31.58 | 32 | 20414
2 | 4:32.15 | 6:17.70 | 20415 | 48759
3 | 10:50.10 | 3:29.15 | 48760 | 64449
4 | 14:19.25 | 2:40.62 | 64450 | 76511


Range status and errors

Selected range

Filename D:\Ripped By liveevil\Iron Maiden - No Prayer For The Dying (7243 8 35876 2 9, CD2).wav

Peak level 99.8 %
Extraction speed 1.5 X
Range quality 100.0 %
Test CRC 0FD646A9
Copy CRC 0FD646A9
Copy OK

No errors occurred


AccurateRip summary

Track 1 accurately ripped (confidence 2) [5CC848CA] (AR v2)
Track 2 accurately ripped (confidence 2) [6BC8B4EE] (AR v2)
Track 3 accurately ripped (confidence 2) [40DBCF50] (AR v2)
Track 4 accurately ripped (confidence 2) [C0864E76] (AR v2)

All tracks accurately ripped

End of status report

==== Log checksum C543096C7BAB1C3D9F50CA34A4917B633C4600BAF014FEE74A28054CEF2AE380 ====

[CUETools log; Date: 10.05.2019 18:54:31; Version: 2.1.4]
Pregap length 00:00:32.
[CTDB TOCID: 97KHjeBGNoTP7rc2vioITn1vNGA-] found.
Track | CTDB Status
1 | (39/39) Accurately ripped
2 | (39/39) Accurately ripped
3 | (39/39) Accurately ripped
4 | (39/39) Accurately ripped
[AccurateRip ID: 000334f9-000ca06e-2b03fc04] found.
Track [ CRC | V2 ] Status
01 [2656f0d5|5cc848ca] (20+39/59) Accurately ripped
02 [b03106e8|6bc8b4ee] (20+39/59) Accurately ripped
03 [ddb24d88|40dbcf50] (20+40/60) Accurately ripped
04 [4e856216|c0864e76] (20+40/60) Accurately ripped

Track Peak [ CRC32 ] [W/O NULL] [ LOG ]
– 99,8 [0FD646A9] [F9A52F6B] CRC32
01 97,7 [D92EE3C6] [1743E1CB]
02 97,7 [0FE7B22A] [31A5C5A1]
03 99,8 [E6750DCF] [3000FB96]
04 95,9 [677FA0AC] [9A14BFCC]

Iron Maiden - 10 Albums (1980-1992) [2CD Limited Editions 1995]

Iron Maiden - Fear Of The Dark (1992) [2CD Limited Edition 1995]
EAC Rip | FLAC (image+.cue+log) - 628 MB | MP3 CBR 320 kbps (LAME 3.93) - 223 MB | Covers - 113 MB
Genre: Heavy Metal | RAR 3% Rec. | Label: EMI (7243 8 35877 2 8)

CD 1 Tracklist:
01. Be Quick Or Be Dead
02. From Here To Eternity
03. Afraid To Shoot Strangers
04. Fear Is The Key
05. Childhood's End
06. Wasting Love
07. The Fugitive
08. Chains Of Misery
09. The Apparition
10. Judas Be My Guide
11. Weekend Warrior
12. Fear Of The Dark

Total time: 58:38

CD 2 Tracklist:
01. Nodding Donkey Blues
02. Space Station No.5
03. I Can't See My Feeling
04. Roll Over Vic Vella
05. No Prayer For The Dying (Live)
06. Public Enema No.1 (Live)
07. Hooks In You (Live)

Total time: 36:07

Exact Audio Copy V1.0 beta 3 from 29. August 2011

EAC extraction logfile from 9. March 2013, 13:06

Iron Maiden / Fear Of The Dark (7243 8 35877 2 8, CD1)

Used drive : PLEXTOR DVDR PX-612U Adapter: 1 ID: 0

Read mode : Secure
Utilize accurate stream : Yes
Defeat audio cache : Yes
Make use of C2 pointers : No

Read offset correction : 6
Overread into Lead-In and Lead-Out : No
Fill up missing offset samples with silence : Yes
Delete leading and trailing silent blocks : No
Null samples used in CRC calculations : Yes
Used interface : Installed external ASPI interface

Used output format : User Defined Encoder
Selected bitrate : 1024 kBit/s
Quality : High
Add ID3 tag : No
Command line compressor : C:\Program Files (x86)\Exact Audio Copy 1.0b3\Flac\flac.exe
Additional command line options : -V -8 -T "Date=%year%" -T "Genre=%genre%" %source%


TOC of the extracted CD

Track | Start | Length | Start sector | End sector
––––––––––––––––––––––––––––-
1 | 0:00.32 | 3:24.35 | 32 | 15366
2 | 3:24.67 | 3:38.23 | 15367 | 31739
3 | 7:03.15 | 6:56.35 | 31740 | 62974
4 | 13:59.50 | 5:35.20 | 62975 | 88119
5 | 19:34.70 | 4:40.42 | 88120 | 109161
6 | 24:15.37 | 5:50.70 | 109162 | 135481
7 | 30:06.32 | 4:54.05 | 135482 | 157536
8 | 35:00.37 | 3:37.30 | 157537 | 173841
9 | 38:37.67 | 3:54.43 | 173842 | 191434
10 | 42:32.35 | 3:08.57 | 191435 | 205591
11 | 45:41.17 | 5:39.53 | 205592 | 231069
12 | 51:20.70 | 7:16.70 | 231070 | 263839


Range status and errors

Selected range

Filename D:\Ripped By liveevil\Iron Maiden - Fear Of The Dark (7243 8 35877 2 8, CD1).wav

Peak level 100.0 %
Extraction speed 2.0 X
Range quality 99.9 %
Test CRC 01C4BA80
Copy CRC 01C4BA80
Copy OK

No errors occurred


AccurateRip summary

Track 1 accurately ripped (confidence 2) [A32FA45B] (AR v2)
Track 2 accurately ripped (confidence 2) [D58641C2] (AR v2)
Track 3 accurately ripped (confidence 2) [38245958] (AR v2)
Track 4 accurately ripped (confidence 2) [9ABE765B] (AR v2)
Track 5 accurately ripped (confidence 2) [A55705E8] (AR v2)
Track 6 accurately ripped (confidence 2) [0F467A08] (AR v2)
Track 7 accurately ripped (confidence 2) [1AFF1626] (AR v2)
Track 8 accurately ripped (confidence 2) [79655A22] (AR v2)
Track 9 accurately ripped (confidence 18) [97FC0A55] (AR v1)
Track 10 accurately ripped (confidence 2) [BAB960B7] (AR v2)
Track 11 accurately ripped (confidence 2) [AA577B50] (AR v2)
Track 12 accurately ripped (confidence 2) [64E948BE] (AR v2)

All tracks accurately ripped

End of status report

==== Log checksum 579A8A34B9A7873A5DD515BFD15B0F097F2EB8175E1D6ED51ECC782CBFCC99B5 ====

[CUETools log; Date: 10.05.2019 18:56:18; Version: 2.1.4]
Pregap length 00:00:32.
[CTDB TOCID: Z3rjzSDz62_MZsLWkoQ7jvKtZYw-] found.
Track | CTDB Status
1 | (646/679) Accurately ripped
2 | (652/679) Accurately ripped
3 | (649/679) Accurately ripped
4 | (658/679) Accurately ripped
5 | (650/679) Accurately ripped
6 | (651/679) Accurately ripped
7 | (655/679) Accurately ripped
8 | (650/679) Accurately ripped
9 | (643/679) Accurately ripped
10 | (639/679) Accurately ripped
11 | (627/679) Accurately ripped
12 | (613/679) Accurately ripped
[AccurateRip ID: 00196c92-00ee6c70-940dbd0c] found.
Track [ CRC | V2 ] Status
01 [e9159a94|a32fa45b] (018+046/543) Accurately ripped
02 [bbd1b4db|d58641c2] (016+045/539) Accurately ripped
03 [a5390997|38245958] (018+045/537) Accurately ripped
04 [5941b144|9abe765b] (017+045/540) Accurately ripped
05 [351a71d3|a55705e8] (018+045/535) Accurately ripped
06 [de867526|0f467a08] (018+045/538) Accurately ripped
07 [7ef88f85|1aff1626] (018+045/542) Accurately ripped
08 [3e9544cd|79655a22] (018+045/539) Accurately ripped
09 [97fc0a55|8b1f3fdf] (017+044/526) Accurately ripped
10 [853e3cb9|bab960b7] (018+045/532) Accurately ripped
11 [de322767|aa577b50] (018+045/514) Accurately ripped
12 [4350443b|64e948be] (018+044/515) Accurately ripped
Offsetted by -781:
01 [a6443059] (047/543) Accurately ripped
02 [df647a33] (046/539) Accurately ripped
03 [c2592cdb] (047/537) Accurately ripped
04 [7d4d3d4a] (046/540) Accurately ripped
05 [a2c4a707] (044/535) Accurately ripped
06 [15d205a7] (047/538) Accurately ripped
07 [b7b2c707] (047/542) Accurately ripped
08 [747a85d0] (047/539) Accurately ripped
09 [35434034] (048/526) Accurately ripped
10 [158ef8bf] (048/532) Accurately ripped
11 [0a51ba85] (044/514) Accurately ripped
12 [c194a750] (047/515) Accurately ripped
Offsetted by -683:
01 [1edf18a9] (148/543) Accurately ripped
02 [5d082ce5] (148/539) Accurately ripped
03 [10ae18f4] (145/537) Accurately ripped
04 [c81d6263] (144/540) Accurately ripped
05 [2ad8c1a9] (146/535) Accurately ripped
06 [3e105887] (145/538) Accurately ripped
07 [99fa84ef] (147/542) Accurately ripped
08 [20fc5281] (147/539) Accurately ripped
09 [7beb08f4] (142/526) Accurately ripped
10 [4a977c7e] (145/532) Accurately ripped
11 [9bc1f766] (138/514) Accurately ripped
12 [cc2e79b3] (134/515) Accurately ripped
Offsetted by 674:
01 [168ff119] (010/543) Accurately ripped
02 [725a9eb9] (010/539) Accurately ripped
03 [36a8a874] (010/537) Accurately ripped
04 [2bb0db0b] (010/540) Accurately ripped
05 [13b9435a] (010/535) Accurately ripped
06 [f1f55860] (010/538) Accurately ripped
07 [653cb44c] (010/542) Accurately ripped
08 [20dfe05a] (010/539) Accurately ripped
09 [55f60729] (010/526) Accurately ripped
10 [9077e602] (010/532) Accurately ripped
11 [beea8cc2] (010/514) Accurately ripped
12 [a105e729] (010/515) Accurately ripped
Offsetted by -793:
01 [e01ef81a] (000/543) No match (V2 was not tested)
02 [2daa2132] (000/539) No match (V2 was not tested)
03 [6880e2fa] (000/537) No match (V2 was not tested)
04 [6c3b0ab3] (000/540) No match (V2 was not tested)
05 [7a0d38e7] (000/535) No match (V2 was not tested)
06 [dc91b07d] (000/538) No match (V2 was not tested)
07 [ca9c9c59] (000/542) No match (V2 was not tested)
08 [213003ed] (000/539) No match (V2 was not tested)
09 [d3abc915] (000/526) No match (V2 was not tested)
10 [d9872d47] (000/532) No match (V2 was not tested)
11 [d7b94784] (000/514) No match (V2 was not tested)
12 [42d013df] (000/515) No match (V2 was not tested)

Track Peak [ CRC32 ] [W/O NULL] [ LOG ]
– 100,0 [01C4BA80] [392DD88E] CRC32
01 98,6 [371F40B2] [07059094]
02 94,4 [25A602D9] [6FFD23A4]
03 99,9 [3F317BAD] [4833EC53]
04 98,6 [44AE0701] [B4522F1E]
05 100,0 [315D823F] [7909FD8A]
06 99,9 [459B58AC] [D945E3D1]
07 100,0 [19867370] [E2B72F52]
08 94,9 [856DAD41] [68AFF850]
09 100,0 [E3A92906] [B9D22EC3]
10 95,1 [1A024A21] [AC5A46BF]
11 99,9 [544EB943] [35082ECF]
12 99,9 [078F1220] [8EE4F3EF]

Exact Audio Copy V1.0 beta 3 from 29. August 2011

EAC extraction logfile from 9. March 2013, 13:49

Iron Maiden / Fear Of The Dark (7243 8 35877 2 8, CD2)

Used drive : PLEXTOR DVDR PX-612U Adapter: 1 ID: 0

Read mode : Secure
Utilize accurate stream : Yes
Defeat audio cache : Yes
Make use of C2 pointers : No

Read offset correction : 6
Overread into Lead-In and Lead-Out : No
Fill up missing offset samples with silence : Yes
Delete leading and trailing silent blocks : No
Null samples used in CRC calculations : Yes
Used interface : Installed external ASPI interface

Used output format : User Defined Encoder
Selected bitrate : 1024 kBit/s
Quality : High
Add ID3 tag : No
Command line compressor : C:\Program Files (x86)\Exact Audio Copy 1.0b3\Flac\flac.exe
Additional command line options : -V -8 -T "Date=%year%" -T "Genre=%genre%" %source%


TOC of the extracted CD

Track | Start | Length | Start sector | End sector
––––––––––––––––––––––––––––-
1 | 0:00.32 | 3:19.43 | 32 | 14999
2 | 3:20.00 | 11:58.62 | 15000 | 68911
3 | 15:18.62 | 3:50.43 | 68912 | 86204
4 | 19:09.30 | 4:48.27 | 86205 | 107831
5 | 23:57.57 | 4:25.55 | 107832 | 127761
6 | 28:23.37 | 3:58.25 | 127762 | 145636
7 | 32:21.62 | 3:44.70 | 145637 | 162506


Range status and errors

Selected range

Filename D:\Ripped By liveevil\Iron Maiden - Fear Of The Dark (7243 8 35877 2 8, CD2).wav

Peak level 100.0 %
Extraction speed 1.8 X
Range quality 100.0 %
Test CRC 6D3E3457
Copy CRC 6D3E3457
Copy OK

No errors occurred


AccurateRip summary

Track 1 accurately ripped (confidence 2) [6191A2D6] (AR v2)
Track 2 accurately ripped (confidence 2) [735C6A1B] (AR v2)
Track 3 accurately ripped (confidence 2) [01086B1F] (AR v2)
Track 4 accurately ripped (confidence 2) [C3B3990D] (AR v2)
Track 5 accurately ripped (confidence 2) [4C36B59F] (AR v2)
Track 6 accurately ripped (confidence 2) [9CD6F7CA] (AR v2)
Track 7 accurately ripped (confidence 2) [0F78D24D] (AR v2)

All tracks accurately ripped

End of status report

==== Log checksum 9AF3D001FF738B549E9A8CAE10B45D1F8A4F4332309F02BD5A5C05959C4CAC35 ====

[CUETools log; Date: 10.05.2019 18:56:46; Version: 2.1.4]
Pregap length 00:00:32.
[CTDB TOCID: D5HwTKFgoS1hIeCJQtXugkceovA-] found.
Track | CTDB Status
1 | (36/36) Accurately ripped
2 | (36/36) Accurately ripped
3 | (36/36) Accurately ripped
4 | (36/36) Accurately ripped
5 | (36/36) Accurately ripped
6 | (36/36) Accurately ripped
7 | (36/36) Accurately ripped
[AccurateRip ID: 000ae49f-004030f3-48087607] found.
Track [ CRC | V2 ] Status
01 [d567f92d|6191a2d6] (18+43/61) Accurately ripped
02 [e081eefe|735c6a1b] (18+43/61) Accurately ripped
03 [a8caed7b|01086b1f] (18+43/61) Accurately ripped
04 [77192120|c3b3990d] (18+43/61) Accurately ripped
05 [19fe037f|4c36b59f] (18+42/60) Accurately ripped
06 [d1be1716|9cd6f7ca] (18+42/60) Accurately ripped
07 [0332dde4|0f78d24d] (18+42/60) Accurately ripped

Track Peak [ CRC32 ] [W/O NULL] [ LOG ]
– 100,0 [6D3E3457] [139C8FB5] CRC32
01 94,4 [3F5AEF4B] [E155C585]
02 94,4 [1F6720AB] [A700A3A7]
03 94,4 [FF052C12] [9476F0AB]
04 100,0 [91645BED] [3921BB65]
05 80,6 [87272226] [E23E983F]
06 61,9 [2600F76C] [034E7C08]
07 94,4 [C36C8680] [07FE52F2]

Thanks to liveevil