Subcategories

Italian Classical Consort, Luigi Magistrelli - C.P.E. Bach: Chamber Music for Clarinet (2016)

Posted By: tirexiss
Italian Classical Consort, Luigi Magistrelli - C.P.E. Bach: Chamber Music for Clarinet (2016)

Italian Classical Consort, Luigi Magistrelli - C.P.E. Bach: Chamber Music for Clarinet (2016)
EAC | FLAC (image+.cue, log) | Covers Included | 60:08 | 246 MB
Genre: Classical | Label: Brilliant Classics | Catalog: 95307

The ever-expanding catalogue of Carl Philipp Emmanuel Bach on Brilliant Classics (most of it contained in a 30-CD box, 94640), now reaches his music for clarinet, which has received much less attention on record than his orchestral or keyboard works but is no less melodically fertile and formally inventive than his better?known music.
The clarinet was in its infancy when Bach began to write for it, late in life, having left his position in Berlin as court composer to Frederick the Great, and taken over the directorship of the five principal churches in Hamburg after the death of his godfather, Georg Philipp Telemann (who, as ever, got there first when it came to exploring the potential of new instruments, with various works including a lovely and doleful duet?concerto for two clarinets in D minor).
Sometime after his move to Hamburg, Bach created six single movement sonatas for clarinet, bassoon and fortepiano (H516?21, Wq 91/1?6) of which the keyboard parts are recycled from earlier works, as are several other pieces here, including music which he had originally composed for flute, perhaps for Frederick to play. The Quartet in A minor (H537, Wq93), however, certainly dates from early 1788, originally written for flute (or, as here, clarinet), violin and treble and bass keyboard lines: thus a trio in practice.
The two clarinet duets here are the shortest works on the disc, yet not the least affecting, within the harmonically searching idiom, dubbed Empfindsamkeit, of which Bach became the most noted practitioner, exciting the admiration and imitation of Mozart, Beethoven and countless others who came after him.

Italian Classical Consort, Luigi Magistrelli - C.P.E. Bach: Chamber Music for Clarinet (2016)

Track List:

Carl Philipp Emanuel Bach (1714-1788)

[1]-[3] Divertimento in G major, H642
for C-clarinet, violin, viola and cello
[4]-[9] Six Sonatas, Wq 92 (H516-521)
for fortepiano, clarinet and cello
[10]-[12] Violin Sonata in G minor, H542.5
Original by J.S.Bach, BWV 1020
[13]-[14] Duo for Two Clarinets in C major, H636
[15]-[17] Quartet in A minor, Wq 93 (H537)
for fortepiano, clarinet, viola and cello

Performers:
Italian Classical Consort, on period instruments
Luigi Magistrelli, clarinet

Exact Audio Copy V1.1 from 23. June 2015

EAC extraction logfile from 5. November 2016, 0:56

Luigi Magistrelli, Italian Classical Consort / C.P.E.Bach - Chamber Music for Clarinet

Used drive : HL-DT-STDVDRAM GU70N Adapter: 1 ID: 0

Read mode : Secure
Utilize accurate stream : Yes
Defeat audio cache : Yes
Make use of C2 pointers : No

Read offset correction : 48
Overread into Lead-In and Lead-Out : No
Fill up missing offset samples with silence : Yes
Delete leading and trailing silent blocks : No
Null samples used in CRC calculations : Yes
Used interface : Native Win32 interface for Win NT & 2000

Used output format : User Defined Encoder
Selected bitrate : 128 kBit/s
Quality : High
Add ID3 tag : No
Command line compressor : C:\Program Files (x86)\Exact Audio Copy\Flac\flac.exe
Additional command line options : -V -8 -T "Date=%year%" -T "Genre=%genre%" %source%


TOC of the extracted CD

Track | Start | Length | Start sector | End sector
––––––––––––––––––––––––––––-
1 | 0:00.00 | 3:27.72 | 0 | 15596
2 | 3:27.72 | 2:59.71 | 15597 | 29092
3 | 6:27.68 | 4:27.65 | 29093 | 49182
4 | 10:55.58 | 3:50.63 | 49183 | 66495
5 | 14:46.46 | 1:22.46 | 66496 | 72691
6 | 16:09.17 | 1:47.55 | 72692 | 80771
7 | 17:56.72 | 2:37.01 | 80772 | 92547
8 | 20:33.73 | 4:38.30 | 92548 | 113427
9 | 25:12.28 | 2:35.36 | 113428 | 125088
10 | 27:47.64 | 3:57.40 | 125089 | 142903
11 | 31:45.29 | 2:30.48 | 142904 | 154201
12 | 34:16.02 | 5:02.10 | 154202 | 176861
13 | 39:18.12 | 2:04.03 | 176862 | 186164
14 | 41:22.15 | 3:10.71 | 186165 | 200485
15 | 44:33.11 | 6:50.19 | 200486 | 231254
16 | 51:23.30 | 3:33.24 | 231255 | 247253
17 | 54:56.54 | 5:10.14 | 247254 | 270517


Range status and errors

Selected range

Filename C:\temp\C.P.E.Bach - Chamber Music for Clarinet\C.P.E.Bach - Chamber Music for Clarinet.wav

Peak level 82.8 %
Extraction speed 5.2 X
Range quality 100.0 %
Test CRC C85CAC33
Copy CRC C85CAC33
Copy OK

No errors occurred


AccurateRip summary

Track 1 accurately ripped (confidence 1) [97F256CC] (AR v2)
Track 2 accurately ripped (confidence 1) [78F836F8] (AR v2)
Track 3 accurately ripped (confidence 1) [7B96C3C9] (AR v2)
Track 4 accurately ripped (confidence 1) [CD34A61D] (AR v2)
Track 5 accurately ripped (confidence 1) [C77E2D93] (AR v2)
Track 6 accurately ripped (confidence 1) [5EA740A2] (AR v2)
Track 7 accurately ripped (confidence 1) [3CAE824B] (AR v2)
Track 8 accurately ripped (confidence 1) [9B399638] (AR v2)
Track 9 accurately ripped (confidence 1) [08686992] (AR v2)
Track 10 accurately ripped (confidence 1) [4CB22FBA] (AR v2)
Track 11 accurately ripped (confidence 1) [FEF2902B] (AR v2)
Track 12 accurately ripped (confidence 1) [4E4A1FC3] (AR v2)
Track 13 accurately ripped (confidence 1) [68DAA3C2] (AR v2)
Track 14 accurately ripped (confidence 1) [5531036D] (AR v2)
Track 15 accurately ripped (confidence 1) [A84A2717] (AR v2)
Track 16 accurately ripped (confidence 1) [473559D8] (AR v2)
Track 17 accurately ripped (confidence 1) [327AE54E] (AR v2)

All tracks accurately ripped

End of status report

==== Log checksum 86E9EB246A6026DFEF29C561341B6001E5867CB00DDE078784BDE091C7F7540A ====

[CUETools log; Date: 10.08.2017 9:31:37; Version: 2.1.5]
[CTDB TOCID: sQOPl7.6SMWcUmUfhSyAb1X1Zb8-] found.
Track | CTDB Status
1 | (3/3) Accurately ripped
2 | (3/3) Accurately ripped
3 | (3/3) Accurately ripped
4 | (3/3) Accurately ripped
5 | (3/3) Accurately ripped
6 | (3/3) Accurately ripped
7 | (3/3) Accurately ripped
8 | (3/3) Accurately ripped
9 | (3/3) Accurately ripped
10 | (3/3) Accurately ripped
11 | (3/3) Accurately ripped
12 | (3/3) Accurately ripped
13 | (3/3) Accurately ripped
14 | (3/3) Accurately ripped
15 | (3/3) Accurately ripped
16 | (3/3) Accurately ripped
17 | (3/3) Accurately ripped
[AccurateRip ID: 002266d0-01b6fbf0-100e1611] found.
Track [ CRC | V2 ] Status
01 [6f6865b8|97f256cc] (0+2/2) Accurately ripped
02 [a508abc5|78f836f8] (0+2/2) Accurately ripped
03 [8cab4b95|7b96c3c9] (0+2/2) Accurately ripped
04 [a27dbc48|cd34a61d] (0+2/2) Accurately ripped
05 [b9b03f83|c77e2d93] (0+2/2) Accurately ripped
06 [a28499e8|5ea740a2] (0+2/2) Accurately ripped
07 [7486c278|3cae824b] (0+2/2) Accurately ripped
08 [e272dec5|9b399638] (0+2/2) Accurately ripped
09 [937d1289|08686992] (0+2/2) Accurately ripped
10 [a4f7e22f|4cb22fba] (0+2/2) Accurately ripped
11 [ad4e4281|fef2902b] (0+2/2) Accurately ripped
12 [4840cf80|4e4a1fc3] (0+2/2) Accurately ripped
13 [a3660a5a|68daa3c2] (0+2/2) Accurately ripped
14 [2a777089|5531036d] (0+2/2) Accurately ripped
15 [cb394639|a84a2717] (0+2/2) Accurately ripped
16 [13fabd05|473559d8] (0+2/2) Accurately ripped
17 [2c3e7633|327ae54e] (0+2/2) Accurately ripped

Track Peak [ CRC32 ] [W/O NULL] [ LOG ]
– 82,8 [C85CAC33] [A4940706] CRC32
01 49,9 [24BFEF83] [142038B8]
02 46,8 [320D7A28] [94ECEF65]
03 39,6 [636DC71C] [C880A6AA]
04 55,7 [65A09667] [0E86EFE6]
05 54,6 [DE13EDE7] [460D60DC]
06 46,0 [2CE76910] [0C461E27]
07 54,8 [2F4F0E92] [6BF9D852]
08 46,9 [B4945F1E] [18C3EF66]
09 49,9 [731867EA] [50ADF0F1]
10 68,0 [4150C650] [84CAB682]
11 39,0 [BAC3AD5C] [9B22EBB6]
12 67,3 [3809C63F] [32D651A2]
13 49,8 [13656EC9] [25C1DE2B]
14 82,8 [C2B887D7] [6EDB6F59]
15 51,6 [4AD7A81F] [422941A1]
16 50,9 [2B1407E5] [E5EDADCD]
17 44,8 [49F77A6F] [B51F164C]

Thanks to the Original ripper A-Z!

Download: